<?xml version="1.0" standalone="no"?>
<!DOCTYPE svg PUBLIC "-//W3C//DTD SVG 1.1//EN" "http://www.w3.org/Graphics/SVG/1.1/DTD/svg11.dtd" >
<svg xmlns="http://www.w3.org/2000/svg">
<metadata></metadata>
<defs>
<font id="gibsonitalic" horiz-adv-x="1163" >
<font-face units-per-em="2048" ascent="1638" descent="-410" />
<missing-glyph horiz-adv-x="395" />
<glyph unicode="&#xfb01;" horiz-adv-x="1030" d="M37 -381q33 60 47 150l166 1042h-133l26 162h133q8 55 16 94.5t22.5 91.5t31.5 88t44.5 74.5t61.5 61.5t81.5 38t105.5 15q108 0 160 -23l-35 -149q-50 18 -105 18q-31 0 -56.5 -9t-42.5 -21.5t-31 -35.5t-22 -42t-15 -50t-10 -50.5t-8 -52.5t-7 -48h223l-24 -162h-224 l-166 -1032q-7 -45 -19.5 -85t-20.5 -58l-9 -17h-190zM668 66q0 45 8 92l108 671q7 54 7 78q0 19 -1.5 36t-3.5 25l-2 7h191q6 -23 6 -66q0 -45 -8 -94l-107 -672q-4 -27 -4 -75q0 -19 1.5 -36t2.5 -24l2 -8h-194q-6 23 -6 66zM825 1270q0 58 43.5 100.5t102.5 42.5 q47 0 76.5 -28t29.5 -74q0 -59 -42.5 -101.5t-102.5 -42.5q-45 0 -76 28.5t-31 74.5z" />
<glyph unicode="&#xfb02;" horiz-adv-x="1034" d="M37 -381q33 60 47 150l166 1042h-133l26 162h133q8 55 16 94.5t22.5 91.5t31.5 88t44.5 74.5t61.5 61.5t81.5 38t105.5 15q108 0 160 -23l-35 -149q-50 18 -105 18q-31 0 -56.5 -9t-42.5 -21.5t-31 -35.5t-22 -42t-15 -50t-10 -50.5t-8 -52.5t-7 -48h223l-24 -162h-224 l-166 -1032q-7 -45 -19.5 -85t-20.5 -58l-9 -17h-190zM670 66q0 45 8 92l176 1110q6 47 6 78q0 19 -1.5 36t-2.5 24l-2 7h193q6 -22 6 -65q0 -40 -9 -95l-176 -1110q-4 -27 -4 -75q0 -19 1.5 -36t2.5 -24l2 -8h-194q-6 23 -6 66z" />
<glyph unicode="&#xfb03;" horiz-adv-x="1552" d="M37 -381q33 60 47 150l166 1042h-133l26 162h133q8 55 16 94.5t22.5 91.5t31.5 88t44.5 74.5t61.5 61.5t81.5 38t105.5 15q108 0 160 -23l-35 -149q-50 18 -105 18q-31 0 -56.5 -9t-42.5 -21.5t-31 -35.5t-22 -42t-15 -50t-10 -50.5t-8 -52.5t-7 -48h352q8 55 16 94.5 t22.5 91.5t31.5 88t44.5 74.5t61.5 61.5t81.5 38t105.5 15q107 0 159 -23l-34 -149q-49 18 -105 18q-31 0 -56.5 -9t-42.5 -21.5t-31 -35.5t-22 -42t-15 -50t-10 -50.5t-8 -52.5t-7 -48h223l-25 -162h-223l-166 -1032q-7 -45 -19.5 -85t-21.5 -58l-8 -17h-190q33 60 47 150 l166 1042h-351l-166 -1032q-7 -45 -19.5 -85t-20.5 -58l-9 -17h-190zM1196 66q0 45 8 92l109 671q6 47 6 78q0 19 -1.5 36t-3.5 25l-1 7h190q6 -23 6 -66q0 -45 -8 -94l-106 -672q-4 -27 -4 -75q0 -19 1.5 -36t3.5 -24l1 -8h-195q-6 23 -6 66zM1354 1270q0 58 43 100.5 t102 42.5q47 0 77 -28t30 -74q0 -59 -43 -101.5t-103 -42.5q-45 0 -75.5 28.5t-30.5 74.5z" />
<glyph unicode="&#xfb04;" horiz-adv-x="1556" d="M37 -381q33 60 47 150l166 1042h-133l26 162h133q8 55 16 94.5t22.5 91.5t31.5 88t44.5 74.5t61.5 61.5t81.5 38t105.5 15q108 0 160 -23l-35 -149q-50 18 -105 18q-31 0 -56.5 -9t-42.5 -21.5t-31 -35.5t-22 -42t-15 -50t-10 -50.5t-8 -52.5t-7 -48h352q8 55 16 94.5 t22.5 91.5t31.5 88t44.5 74.5t61.5 61.5t81.5 38t105.5 15q107 0 159 -23l-34 -149q-49 18 -105 18q-31 0 -56.5 -9t-42.5 -21.5t-31 -35.5t-22 -42t-15 -50t-10 -50.5t-8 -52.5t-7 -48h223l-25 -162h-223l-166 -1032q-7 -45 -19.5 -85t-21.5 -58l-8 -17h-190q33 60 47 150 l166 1042h-351l-166 -1032q-7 -45 -19.5 -85t-20.5 -58l-9 -17h-190zM1198 66q0 45 8 92l176 1110q7 54 7 78q0 19 -1.5 36t-3.5 24l-2 7h193q6 -22 6 -65q0 -46 -8 -95l-176 -1110q-4 -27 -4 -75q0 -19 1.5 -36t3.5 -24l1 -8h-195q-6 23 -6 66z" />
<glyph horiz-adv-x="2048" />
<glyph horiz-adv-x="2048" />
<glyph unicode="&#xd;" horiz-adv-x="2048" />
<glyph unicode=" "  horiz-adv-x="395" />
<glyph unicode="&#x09;" horiz-adv-x="395" />
<glyph unicode="&#xa0;" horiz-adv-x="395" />
<glyph unicode="!" horiz-adv-x="598" d="M139 84q0 66 44.5 111t109.5 45q51 0 83 -28.5t32 -78.5q0 -65 -45 -109t-111 -44q-51 0 -82 27t-31 77zM231 375l148 1038h201l-183 -1038h-166z" />
<glyph unicode="&#x22;" horiz-adv-x="886" d="M322 975l49 438h184l-90 -438h-143zM639 975l49 438h184l-90 -438h-143z" />
<glyph unicode="#" horiz-adv-x="1185" d="M104 465l21 131h231l93 303h-213l20 133h233l134 426h129l-131 -426h258l131 426h131l-133 -426h217l-21 -133h-237l-93 -303h220l-21 -131h-242l-129 -426h-131l131 426h-258l-131 -426h-129l131 426h-211zM485 596h258l95 303h-260z" />
<glyph unicode="$" d="M127 242l129 108q25 -87 99.5 -144.5t166.5 -58.5l82 500q-127 66 -167 95q-110 79 -127 199q-3 24 -3 50q0 180 122.5 299.5t307.5 134.5l23 140h117l-25 -142q99 -9 175 -57t116 -133l-113 -117q-29 63 -85.5 105t-125.5 51l-76 -471q129 -67 167 -94q113 -78 134 -193 q5 -31 5 -65q0 -179 -129 -310.5t-316 -150.5l-24 -150h-117l24 148q-125 2 -222 70t-138 186zM487 1032q0 -29 10 -54t21.5 -41.5t36.5 -35.5t40 -28t46 -27l70 426q-95 -9 -159.5 -76.5t-64.5 -163.5zM631 145q97 6 166 85.5t69 177.5q0 32 -9.5 59t-21 44t-37 36 t-42 28.5t-51.5 28.5z" />
<glyph unicode="%" horiz-adv-x="1546" d="M184 1016q0 167 106.5 287t274.5 120q124 0 199.5 -75.5t75.5 -198.5q0 -167 -107 -288.5t-276 -121.5q-123 0 -198 76t-75 201zM256 14l1067 1434l92 -64l-1067 -1431zM328 1036q0 -73 40 -118.5t111 -45.5q96 0 156.5 78t60.5 178q0 73 -40 118.5t-111 45.5 q-98 0 -157.5 -78t-59.5 -178zM831 250q0 167 107 288t276 121q123 0 198 -76t75 -200q0 -167 -106.5 -287.5t-274.5 -120.5q-124 0 -199.5 76t-75.5 199zM977 272q0 -73 39 -118t110 -45q98 0 157.5 78t59.5 178q0 73 -39 118t-112 45q-96 0 -155.5 -78t-59.5 -178z" />
<glyph unicode="&#x26;" horiz-adv-x="1372" d="M84 297q0 79 24.5 148t62.5 119.5t98 98t115.5 80t129.5 68.5q-31 49 -41.5 66t-30.5 56.5t-27 72.5t-7 71q0 162 116 260.5t285 98.5q125 0 211 -63t86 -185q0 -235 -332 -410l211 -319q114 114 213 284l139 -69q-126 -199 -262 -338l234 -320l-4 -16h-228l-135 201 q-123 -111 -237.5 -168.5t-255.5 -57.5q-159 0 -262 83.5t-103 238.5zM283 338q0 -93 60.5 -148t154.5 -55q93 0 189 54.5t167 134.5l-254 372q-136 -73 -188 -115q-129 -103 -129 -243zM594 1094q0 -17 2 -32.5t9.5 -33.5t10.5 -27.5t16 -30.5t16 -26t20 -29.5t18 -25.5 q41 23 67 39t63 44t58.5 54t37.5 63t16 76q0 62 -39 92.5t-103 30.5q-83 0 -137.5 -55.5t-54.5 -138.5z" />
<glyph unicode="'" horiz-adv-x="604" d="M340 975l49 438h184l-88 -438h-145z" />
<glyph unicode="(" horiz-adv-x="563" d="M133 383q0 619 461 1194l113 -68q-175 -221 -285.5 -531t-110.5 -587q0 -159 30 -330.5t89 -293.5l-133 -70q-164 339 -164 686z" />
<glyph unicode=")" horiz-adv-x="563" d="M-29 -233q175 219 285.5 529t110.5 589q0 155 -30.5 328t-88.5 296l133 68q164 -336 164 -684q0 -621 -461 -1196z" />
<glyph unicode="*" horiz-adv-x="1042" d="M289 1151l63 125l256 -115l31 293h133l-63 -293l292 115l25 -125l-305 -90l149 -262l-118 -76l-119 276l-207 -276l-94 76l233 262z" />
<glyph unicode="+" horiz-adv-x="1366" d="M106 631v151h461v459h152v-459h459v-151h-459v-459h-152v459h-461z" />
<glyph unicode="," horiz-adv-x="598" d="M31 -287l219 504h196l-262 -504h-153z" />
<glyph unicode="-" horiz-adv-x="579" d="M82 479l27 164h481l-27 -164h-481z" />
<glyph unicode="." horiz-adv-x="598" d="M137 84q0 64 45.5 108t110.5 44q49 0 81 -28t32 -77q0 -64 -44.5 -107.5t-109.5 -43.5q-50 0 -82.5 27.5t-32.5 76.5z" />
<glyph unicode="/" horiz-adv-x="1032" d="M-25 -131l1100 1747l119 -57l-1096 -1749z" />
<glyph unicode="0" d="M111 514q0 118 23 241.5t74.5 246t125 218t184.5 155t244 59.5q92 0 164.5 -30t120 -80.5t79 -120.5t45 -146.5t13.5 -161.5q0 -98 -16.5 -200t-49.5 -206t-87.5 -195.5t-124 -162.5t-166.5 -112.5t-208 -41.5q-92 0 -164.5 30t-120 80.5t-79 120.5t-44.5 145.5 t-13 160.5zM307 526q0 -69 11.5 -129t38 -117t78.5 -90.5t124 -33.5q92 0 168 53.5t123 135t79.5 183.5t46 193.5t13.5 171.5q0 68 -12 128.5t-38.5 117t-79 90t-124.5 33.5q-77 0 -143 -37t-111.5 -99.5t-80 -139t-54.5 -161t-29.5 -159.5t-9.5 -140z" />
<glyph unicode="1" horiz-adv-x="866" d="M279 1264l24 149h455l-223 -1413h-191l201 1264h-266z" />
<glyph unicode="2" d="M100 135l555 473q60 51 102 92t89 99t71.5 121.5t24.5 128.5q0 104 -67 161.5t-173 57.5q-196 0 -362 -224l-88 117q74 125 206.5 199t282.5 74q171 0 283.5 -88.5t112.5 -253.5q0 -53 -12 -105.5t-30 -95t-49.5 -89t-59 -80t-71.5 -77t-73.5 -69.5t-77.5 -68l-399 -340 h690l-27 -168h-922z" />
<glyph unicode="3" d="M94 221l129 117q54 -86 130.5 -139.5t168.5 -53.5q146 0 246 82t100 226q0 34 -7.5 61.5t-18 48t-30.5 36t-36.5 25.5t-46 17t-48.5 10.5t-53 5.5t-51.5 2h-52.5l25 160q64 0 112 4.5t102 20.5t88.5 43.5t57.5 78t23 119.5q0 90 -63.5 138.5t-157.5 48.5t-178.5 -43.5 t-172.5 -118.5l-71 123q188 201 463 201q72 0 138 -20t119 -57t85 -97.5t32 -135.5q0 -148 -71 -238.5t-205 -140.5v-2q97 -21 154 -100t57 -180q0 -111 -47 -203.5t-125.5 -153t-179 -93.5t-209.5 -33q-130 0 -238 64t-168 177z" />
<glyph unicode="4" d="M53 309l23 160l827 952h199l-150 -944h197l-27 -168h-196l-49 -309h-189l49 309h-684zM272 473h494l113 707z" />
<glyph unicode="5" d="M80 215l127 117q35 -89 121 -139t186 -50q156 0 262.5 107.5t106.5 263.5q0 117 -75.5 183.5t-193.5 66.5q-154 0 -254 -76l-88 62l226 663h684l-25 -164h-541l-133 -368q84 37 197 37q170 0 282.5 -104.5t112.5 -274.5q0 -159 -77.5 -288.5t-211 -202.5t-294.5 -73 q-135 0 -251 61.5t-161 178.5z" />
<glyph unicode="6" d="M150 465q0 104 18 213t53 218.5t92.5 205.5t131 170.5t175 118t218.5 43.5q218 0 358 -146l-104 -135q-51 59 -124 90t-153 31q-85 0 -157 -39.5t-121 -100.5t-87.5 -143t-59.5 -158t-34 -155q68 106 172 163.5t228 57.5q156 0 256 -100t100 -256q0 -112 -41.5 -215.5 t-113.5 -181.5t-175 -124.5t-219 -46.5q-109 0 -190.5 39t-129 108t-70.5 154.5t-23 188.5zM344 383q0 -110 64.5 -178t175.5 -68q97 0 174.5 53t118.5 136t41 178q0 111 -63.5 178.5t-172.5 67.5q-145 0 -241.5 -110t-96.5 -257z" />
<glyph unicode="7" d="M197 0l837 1249h-762l27 164h924l39 -115l-865 -1298h-200z" />
<glyph unicode="8" d="M123 315q0 152 85 268t230 162v3q-168 72 -168 247q0 132 68.5 233.5t179.5 153.5t244 52q98 0 181 -32.5t138.5 -104t55.5 -171.5q0 -134 -71.5 -233t-197.5 -145v-3q97 -35 150 -109.5t53 -176.5q0 -111 -43 -203t-116.5 -152.5t-171.5 -93.5t-208 -33q-83 0 -155 20 t-129.5 59.5t-91 106t-33.5 152.5zM319 358q0 -101 68 -159t170 -58q135 0 229.5 91t94.5 225q0 102 -68 158.5t-172 56.5q-135 0 -228.5 -89t-93.5 -225zM461 1004q0 -89 57 -136t148 -47q119 0 197.5 76t78.5 195q0 89 -57.5 136.5t-147.5 47.5q-119 0 -197.5 -76.5 t-78.5 -195.5z" />
<glyph unicode="9" d="M90 121l105 135q51 -58 128.5 -88.5t159.5 -30.5q84 0 155.5 39.5t119.5 100t86 143t58.5 157.5t33.5 154q-66 -106 -169.5 -163.5t-229.5 -57.5q-155 0 -255 100.5t-100 255.5q0 112 41.5 215.5t113.5 181.5t175 124.5t219 46.5q109 0 190 -38.5t128.5 -107.5t70.5 -155 t23 -189q0 -102 -17.5 -209.5t-52 -217t-92 -206.5t-130 -172.5t-173 -119.5t-215.5 -44q-235 0 -373 146zM377 907q0 -111 63 -178t172 -67q145 0 241.5 109.5t96.5 256.5q0 110 -64 178t-175 68q-97 0 -174.5 -53t-118.5 -136t-41 -178z" />
<glyph unicode=":" horiz-adv-x="598" d="M137 84q0 66 45.5 111t110.5 45q51 0 83 -28.5t32 -78.5q0 -64 -45.5 -108.5t-110.5 -44.5q-50 0 -82.5 27.5t-32.5 76.5zM256 834q0 66 45.5 110.5t110.5 44.5q51 0 82.5 -28t31.5 -78q0 -64 -45 -109t-110 -45q-51 0 -83 27.5t-32 77.5z" />
<glyph unicode=";" horiz-adv-x="598" d="M31 -287l219 506h196l-262 -506h-153zM256 834q0 66 45.5 110.5t110.5 44.5q51 0 82.5 -28t31.5 -78q0 -64 -45 -109t-110 -45q-51 0 -83 27.5t-32 77.5z" />
<glyph unicode="&#x3c;" horiz-adv-x="1366" d="M106 623v168l1072 458v-166l-881 -376l881 -377v-166z" />
<glyph unicode="=" horiz-adv-x="1366" d="M106 444v152h1072v-152h-1072zM106 817v150h1072v-150h-1072z" />
<glyph unicode="&#x3e;" horiz-adv-x="1366" d="M106 164v166l881 377l-881 376v166l1072 -458v-168z" />
<glyph unicode="?" horiz-adv-x="978" d="M268 1239q67 94 174.5 144.5t227.5 50.5q138 0 231.5 -75.5t93.5 -209.5q0 -65 -16 -120.5t-44 -96.5t-62.5 -76t-73.5 -66t-75 -59.5t-70 -63.5t-54 -71q-13 -22 -22.5 -53t-13.5 -53.5t-9 -61t-8 -53.5h-164q1 11 6 57t7.5 61.5t9.5 53.5t15 59.5t21.5 50t30.5 52.5 q27 35 73.5 74.5t89 72.5t82.5 70.5t64.5 84.5t24.5 99q0 78 -55 117t-136 39q-82 0 -153 -41t-123 -111zM289 84q0 66 44 111t109 45q51 0 83 -28.5t32 -78.5q0 -65 -45 -109t-111 -44q-49 0 -80.5 27.5t-31.5 76.5z" />
<glyph unicode="@" horiz-adv-x="1589" d="M92 274q0 140 43 276.5t123.5 251.5t187 203t242.5 137.5t281 49.5q119 0 224 -34t185.5 -97.5t127 -163.5t46.5 -223q0 -85 -25.5 -178.5t-75 -181t-115 -158.5t-152.5 -113.5t-180 -42.5q-66 0 -105.5 31t-40.5 94q-144 -125 -272 -125q-95 0 -146 67t-51 164 q0 80 26.5 169t76 172t114 150t148.5 107.5t172 40.5q63 0 117.5 -24t80.5 -76l29 61h141q-7 -16 -61.5 -129t-100 -209.5t-86 -195.5t-40.5 -127q0 -49 57 -49q62 0 121.5 38t103.5 98.5t77.5 132t51 142t17.5 125.5q0 82 -25 151.5t-69 119t-105 84t-132.5 51t-150.5 16.5 q-153 0 -291 -66.5t-234.5 -175t-153 -252t-56.5 -294.5q0 -226 131.5 -363t356.5 -137q276 0 552 162l33 -86q-146 -97 -293 -143t-319 -46q-267 0 -426.5 164.5t-159.5 431.5zM528 266q0 -65 30.5 -104t92.5 -39q49 0 93.5 20.5t81 59t67 81t58.5 99t47 99.5t40.5 96.5 t32.5 76.5q-45 99 -162 99q-75 0 -147.5 -50t-122 -124.5t-80.5 -159t-31 -154.5z" />
<glyph unicode="A" horiz-adv-x="1290" d="M-41 0l778 1417h170l330 -1417h-217l-80 367h-580l-196 -367h-205zM442 537h469l-135 626z" />
<glyph unicode="B" horiz-adv-x="1165" d="M106 0l226 1413h366q66 0 120 -5.5t112 -23.5t97.5 -48t65 -83t25.5 -125q0 -125 -72.5 -234.5t-189.5 -145.5q115 -26 183.5 -97.5t68.5 -185.5q0 -115 -47 -206.5t-126.5 -146.5t-177.5 -83.5t-208 -28.5h-443zM328 164h215q75 0 137.5 15.5t115 48.5t82 92t29.5 139 q0 49 -19 85.5t-47.5 56.5t-71 32.5t-80 16t-83.5 3.5h-200zM430 809h158q70 0 127 14t104 44.5t73 85t26 128.5q0 42 -14.5 73.5t-37.5 50t-56.5 29t-65.5 14t-72 3.5h-172z" />
<glyph unicode="C" horiz-adv-x="1320" d="M129 563q0 115 27.5 225.5t78 206.5t125 177t164.5 139t200 90.5t228 32.5q135 0 256 -46.5t199 -142.5l-109 -162q-49 81 -155.5 126.5t-210.5 45.5q-130 0 -243 -54.5t-190 -145.5t-121 -209.5t-44 -245.5q0 -197 115 -317.5t311 -120.5q120 0 232 44.5t200 127.5 l61 -148q-217 -211 -530 -211q-268 0 -431 161t-163 427z" />
<glyph unicode="D" horiz-adv-x="1361" d="M106 0l226 1413h409q179 0 317.5 -65.5t220 -197t81.5 -312.5q0 -235 -109.5 -427t-303 -301.5t-431.5 -109.5h-410zM330 176h217q173 0 314 85t219.5 229.5t78.5 318.5q0 201 -121 315.5t-323 114.5h-217z" />
<glyph unicode="E" horiz-adv-x="1054" d="M106 0l226 1413h796l-26 -170h-604l-66 -416h572l-29 -170h-569l-78 -485h620l-26 -172h-816z" />
<glyph unicode="F" horiz-adv-x="980" d="M106 0l226 1413h755l-26 -170h-563l-74 -465h528l-26 -170h-529l-96 -608h-195z" />
<glyph unicode="G" horiz-adv-x="1484" d="M131 567q0 137 38.5 266.5t111.5 237.5t172 189.5t226.5 127.5t268.5 46q169 0 294 -58t218 -190l-151 -127q-134 203 -387 203q-131 0 -243.5 -57t-187 -151t-117 -214.5t-42.5 -247.5q0 -197 115 -317.5t311 -120.5q109 0 223 31.5t176 95.5l49 311h-364l26 164h555 l-88 -551q-265 -230 -616 -230q-264 0 -426 164t-162 428z" />
<glyph unicode="H" horiz-adv-x="1417" d="M106 0l226 1413h194l-92 -582h717l92 582h195l-224 -1413h-194l104 659h-718l-105 -659h-195z" />
<glyph unicode="I" horiz-adv-x="495" d="M106 0l226 1413h194l-225 -1413h-195z" />
<glyph unicode="J" horiz-adv-x="495" d="M-190 -385l28 158q39 -19 105 -19q26 0 47.5 9t37 22.5t28 35.5t20 41t14 47.5t9.5 45t7 43.5l226 1415h192l-221 -1407q-11 -65 -24.5 -118t-40.5 -111t-63 -97t-92.5 -64.5t-127.5 -25.5q-32 0 -76.5 7t-68.5 18z" />
<glyph unicode="K" horiz-adv-x="1148" d="M106 0l226 1413h192l-94 -598l643 598h240l-608 -557l419 -856h-235l-340 707l-160 -146l-88 -561h-195z" />
<glyph unicode="L" horiz-adv-x="845" d="M106 0l226 1413h192l-196 -1239h479l-27 -174h-674z" />
<glyph unicode="M" horiz-adv-x="1695" d="M45 0l348 1413h238l219 -1087h2l561 1087h240l-103 -1413h-192l88 1112h-2l-592 -1124h-111l-237 1124h-2l-264 -1112h-193z" />
<glyph unicode="N" horiz-adv-x="1468" d="M106 0l226 1413h203l589 -1104q35 233 174 1104h191l-223 -1413h-191l-602 1118q-39 -265 -174 -1118h-193z" />
<glyph unicode="O" horiz-adv-x="1560" d="M129 565q0 173 62 331.5t170 277.5t264 189.5t333 70.5q267 0 432.5 -161.5t165.5 -428.5q0 -138 -39 -268.5t-113 -238.5t-174 -189.5t-229.5 -127t-271.5 -45.5q-267 0 -433.5 162t-166.5 428zM332 600q0 -196 116 -318t310 -122q130 0 243 55.5t190 147t121 211 t44 245.5q0 196 -115.5 318.5t-308.5 122.5q-172 0 -311.5 -95t-214 -245t-74.5 -320z" />
<glyph unicode="P" horiz-adv-x="1054" d="M106 0l226 1413h381q65 0 123 -10.5t110.5 -35t90 -61.5t59.5 -93t22 -126q0 -151 -70.5 -262t-190 -166t-271.5 -55h-189l-96 -604h-195zM424 770h172q139 0 229 74t90 211q0 102 -68 147t-175 45h-174z" />
<glyph unicode="Q" horiz-adv-x="1560" d="M129 565q0 173 62 331.5t170 277.5t264 189.5t333 70.5q267 0 432.5 -161.5t165.5 -428.5q0 -193 -74 -365.5t-208 -294.5l123 -180l-146 -106l-123 182q-181 -105 -399 -105q-267 0 -433.5 162t-166.5 428zM332 600q0 -196 116 -318t310 -122q148 0 268 69l-94 138 l145 106l92 -135q89 94 138 220t49 261q0 196 -115.5 318.5t-308.5 122.5q-172 0 -311.5 -95t-214 -245t-74.5 -320z" />
<glyph unicode="R" horiz-adv-x="1073" d="M106 0l226 1413h385q82 0 152 -18t127 -55.5t89.5 -102t32.5 -150.5q0 -180 -100 -302t-273 -156l287 -629h-235l-258 608h-142l-96 -608h-195zM424 774h151q73 0 132.5 15.5t108 48t75.5 89.5t27 134q0 46 -16 80t-40.5 54t-61 32t-71.5 16t-78 4h-153z" />
<glyph unicode="S" horiz-adv-x="1060" d="M57 217l127 129q48 -88 136 -143.5t186 -55.5q120 0 210.5 74.5t90.5 192.5q0 54 -31 95t-80.5 69t-109.5 53t-119.5 54.5t-109 66t-80.5 95t-31 134.5q0 135 70 240t184.5 159t251.5 54q104 0 198 -49t160 -134l-115 -131q-123 146 -282 146q-111 0 -189 -62.5 t-78 -171.5q0 -53 31 -94t80.5 -68.5t109.5 -53.5t120 -56.5t109.5 -68t80.5 -98t31 -138.5q0 -139 -77.5 -250.5t-200.5 -170.5t-263 -59q-134 0 -233.5 62t-176.5 180z" />
<glyph unicode="T" horiz-adv-x="995" d="M168 1243l29 170h958l-27 -170h-383l-196 -1243h-195l197 1243h-383z" />
<glyph unicode="U" horiz-adv-x="1325" d="M170 381q0 78 18 197l134 835h194l-129 -817q-18 -103 -18 -174q0 -125 72.5 -195.5t199.5 -70.5q79 0 141.5 24.5t103 63.5t71 98t47 118.5t28.5 135.5l129 817h197l-133 -835q-94 -603 -613 -603q-202 0 -322 104t-120 302z" />
<glyph unicode="V" horiz-adv-x="1183" d="M182 1413h209l203 -1118l557 1118h205l-725 -1415h-172z" />
<glyph unicode="W" horiz-adv-x="1886" d="M190 1413h205l127 -1106l496 1106h196l146 -1106l477 1106h205l-627 -1415h-190l-154 1135l-512 -1135h-190z" />
<glyph unicode="X" horiz-adv-x="1150" d="M-47 0l565 729l-309 684h229l228 -549l401 549h229l-526 -684l334 -729h-234l-247 596l-437 -596h-233z" />
<glyph unicode="Y" horiz-adv-x="1142" d="M176 1413h221l248 -645l455 645h219l-604 -821l-92 -592h-197l94 592z" />
<glyph unicode="Z" horiz-adv-x="1124" d="M16 0l25 154l911 1087h-719l27 172h975l-23 -137l-925 -1102h766l-27 -174h-1010z" />
<glyph unicode="[" horiz-adv-x="563" d="M14 -287l293 1846h375l-18 -119h-209l-254 -1608h209l-21 -119h-375z" />
<glyph unicode="\" horiz-adv-x="1026" d="M248 1569l131 59l553 -1638l-131 -60z" />
<glyph unicode="]" horiz-adv-x="563" d="M10 -287l19 119h209l254 1608h-209l20 119h375l-293 -1846h-375z" />
<glyph unicode="^" horiz-adv-x="1366" d="M184 614l373 818h170l373 -818h-166l-291 650l-293 -650h-166z" />
<glyph unicode="_" horiz-adv-x="1024" d="M0 76h1024v-154h-1024v154z" />
<glyph unicode="`" horiz-adv-x="665" d="M330 1413h188l129 -297h-145z" />
<glyph unicode="a" horiz-adv-x="1185" d="M92 385q0 116 37.5 224.5t105.5 194.5t171.5 137.5t226.5 51.5q100 0 179 -42.5t122 -127.5l24 152h191l-131 -832q-4 -34 -4 -75q0 -19 1.5 -36t2.5 -24l2 -8h-186q-7 23 -7 66q0 47 11 92q-67 -84 -162 -132.5t-199 -48.5q-180 0 -282.5 113t-102.5 295zM291 416 q0 -119 65.5 -194t182.5 -75q107 0 190 62t124.5 155.5t41.5 198.5q0 119 -65 192.5t-183 73.5q-106 0 -189 -61t-125 -154.5t-42 -197.5z" />
<glyph unicode="b" horiz-adv-x="1185" d="M72 0q33 59 47 145l176 1108q7 45 20 85t22 58l9 17h189q-34 -59 -48 -149l-69 -441h2q67 81 158 125.5t194 44.5q178 0 279.5 -111t101.5 -292q0 -116 -38.5 -225.5t-106.5 -196t-172.5 -139t-227.5 -52.5q-102 0 -180.5 44.5t-120.5 132.5h-2q-7 -44 -19 -82.5 t-22 -55.5l-8 -16h-184zM352 416q0 -120 65 -194.5t183 -74.5q106 0 188.5 62t124 155.5t41.5 198.5q0 119 -64.5 192.5t-182.5 73.5q-80 0 -148 -35.5t-112.5 -94t-69.5 -132.5t-25 -151z" />
<glyph unicode="c" horiz-adv-x="944" d="M92 393q0 116 43 224.5t117.5 191t182.5 132.5t229 50q99 0 191 -35.5t142 -103.5l-90 -145q-41 62 -108.5 92t-147.5 30q-78 0 -146.5 -35.5t-114.5 -93.5t-72.5 -131.5t-26.5 -148.5q0 -121 69 -197t189 -76q78 0 163.5 31t141.5 82l35 -149q-69 -64 -177.5 -99 t-215.5 -35q-181 0 -292.5 117.5t-111.5 298.5z" />
<glyph unicode="d" horiz-adv-x="1185" d="M92 385q0 116 37.5 224.5t105.5 194.5t171.5 137.5t226.5 51.5q100 0 179 -42.5t122 -127.5l70 445q6 47 6 78q0 19 -1.5 36t-2.5 24l-2 7h192q6 -22 6 -65q0 -46 -8 -95l-176 -1110q-4 -27 -4 -75q0 -19 1.5 -36t2.5 -24l2 -8h-186q-7 23 -7 66q0 49 9 88h-2 q-66 -83 -160 -130t-197 -47q-180 0 -282.5 113t-102.5 295zM291 416q0 -119 65.5 -194t182.5 -75q107 0 190 62t124.5 155.5t41.5 198.5q0 119 -65 192.5t-183 73.5q-106 0 -189 -61t-125 -154.5t-42 -197.5z" />
<glyph unicode="e" horiz-adv-x="1071" d="M92 383q0 162 81 302t224 224t314 84q148 0 239.5 -73t91.5 -189q0 -17 -5.5 -39.5t-21 -53.5t-39 -60.5t-65 -59.5t-94 -52t-130 -36t-169.5 -14q-102 0 -231 18q-2 -17 -2 -37q0 -122 68.5 -192t189.5 -70q87 0 165.5 29t165.5 84l62 -117q-89 -76 -203.5 -115 t-236.5 -39q-186 0 -295 110t-109 296zM311 573q74 -12 162 -12q74 0 140.5 9.5t123 29t90 53.5t33.5 78q0 50 -47 85.5t-127 35.5q-134 0 -235.5 -78t-139.5 -201z" />
<glyph unicode="f" horiz-adv-x="542" d="M37 -381q33 60 47 150l166 1042h-133l26 162h133q8 55 16 94.5t22.5 91.5t31.5 88t44.5 74.5t61.5 61.5t81.5 38t105.5 15q108 0 160 -23l-35 -149q-50 18 -105 18q-31 0 -56.5 -9t-42.5 -21.5t-31 -35.5t-22 -42t-15 -50t-10 -50.5t-8 -52.5t-7 -48h223l-24 -162h-224 l-166 -1032q-7 -45 -19.5 -85t-20.5 -58l-9 -17h-190z" />
<glyph unicode="g" horiz-adv-x="1177" d="M16 -254l109 135q54 -55 144 -89t171 -34q100 0 172.5 32t116 93.5t67.5 132.5t38 168h-3q-64 -83 -156 -127.5t-198 -44.5q-172 0 -277.5 109t-105.5 282q0 114 39 220t107.5 187.5t171 131t221.5 49.5q100 0 180.5 -43t120.5 -129h2q7 44 20 83t22 56l9 17h187 q-34 -60 -48 -150l-98 -620q-22 -138 -64 -243.5t-113 -189.5t-181.5 -128.5t-255.5 -44.5q-110 0 -213.5 38t-184.5 109zM295 432q0 -119 65.5 -188.5t182.5 -69.5q105 0 187 57t124.5 146.5t42.5 193.5q0 117 -66.5 187.5t-183.5 70.5q-105 0 -186.5 -57t-123.5 -146.5 t-42 -193.5z" />
<glyph unicode="h" horiz-adv-x="1089" d="M96 0l201 1268q6 46 6 78q0 19 -1.5 36t-3.5 24l-1 7h192q7 -22 7 -65q0 -40 -9 -95l-69 -432q55 79 138.5 125.5t176.5 46.5q143 0 213 -68.5t70 -209.5q0 -67 -12 -135l-70 -437q-4 -27 -4 -75q0 -19 1.5 -36t2.5 -24l2 -8h-193q-6 23 -6 66q0 45 8 92l62 393 q10 58 10 106q0 84 -37.5 126t-120.5 42q-54 0 -100 -20.5t-77.5 -53.5t-56 -79t-38.5 -92.5t-22 -98.5l-76 -481h-193z" />
<glyph unicode="i" horiz-adv-x="466" d="M111 66q0 45 8 92l108 671q6 47 6 78q0 19 -1.5 36t-3.5 25l-1 7h191q6 -23 6 -66q0 -45 -8 -94l-107 -672q-4 -27 -4 -75q0 -19 1.5 -36t3.5 -24l1 -8h-194q-6 23 -6 66zM268 1270q0 58 43.5 100.5t102.5 42.5q47 0 76.5 -28t29.5 -74q0 -59 -42.5 -101.5t-102.5 -42.5 q-45 0 -76 28.5t-31 74.5z" />
<glyph unicode="j" horiz-adv-x="466" d="M-190 -385l26 160q43 -15 88 -15q32 0 57.5 10t43 31.5t29 41.5t20.5 53.5t13 53t9 54.5l129 813q7 45 20 85t22 58l9 17h189q-33 -60 -47 -150l-131 -829q-11 -66 -26.5 -119.5t-43.5 -107.5t-65.5 -90t-95 -59t-128.5 -23q-80 0 -118 16zM268 1268q0 60 43.5 102.5 t102.5 42.5q47 0 76.5 -28t29.5 -74q0 -60 -42.5 -102t-102.5 -42q-45 0 -76 28t-31 73z" />
<glyph unicode="k" horiz-adv-x="968" d="M96 0l201 1268q6 46 6 78q0 19 -1.5 36t-3.5 24l-1 7h190q7 -22 7 -65q0 -40 -9 -95l-104 -663l440 385h226l-426 -369l317 -606h-225l-246 469l-121 -104l-57 -365h-193z" />
<glyph unicode="l" horiz-adv-x="471" d="M113 66q0 45 8 92l176 1110q6 46 6 78q0 19 -1.5 36t-3.5 24l-1 7h192q7 -22 7 -65q0 -40 -9 -95l-176 -1110q-4 -27 -4 -75q0 -19 1.5 -36t3.5 -24l1 -8h-194q-6 23 -6 66z" />
<glyph unicode="m" horiz-adv-x="1619" d="M88 0l131 829q6 47 6 78q0 19 -1.5 36t-3.5 25l-1 7h189q6 -23 6 -66t-8 -90h4q48 75 129.5 123.5t167.5 48.5q211 0 247 -188q59 87 144 137.5t184 50.5q266 0 266 -280q0 -56 -10 -121l-72 -447q-6 -41 -6 -75q0 -19 1.5 -36t2.5 -24l2 -8h-192q-6 23 -6 66q0 45 8 92 l65 409q11 57 11 95q0 163 -138 163q-59 0 -108.5 -29.5t-81.5 -78t-52.5 -101.5t-29.5 -110l-80 -506h-192l90 567q8 62 8 97q0 161 -135 161q-60 0 -110 -29.5t-82.5 -78t-53 -101.5t-29.5 -110l-79 -506h-191z" />
<glyph unicode="n" horiz-adv-x="1073" d="M88 0l131 829q6 47 6 78q0 19 -1.5 36t-3.5 25l-1 7h191q6 -23 6 -66t-8 -90h2q55 79 138 125.5t177 46.5q281 0 281 -282q0 -61 -13 -134l-67 -432q-4 -27 -4 -75q0 -19 1.5 -36t2.5 -24l2 -8h-195q-6 23 -6 66q0 45 8 92l62 385q10 65 10 114q0 85 -37.5 126.5 t-122.5 41.5q-67 0 -119.5 -29t-86 -79.5t-54 -106.5t-31.5 -121l-77 -489h-191z" />
<glyph unicode="o" horiz-adv-x="1134" d="M92 391q0 161 74.5 298t210 219.5t301.5 82.5q188 0 306 -114.5t118 -301.5q0 -120 -44 -230t-120.5 -191t-186 -129t-233.5 -48q-188 0 -307 113.5t-119 300.5zM291 420q0 -120 67.5 -196.5t186.5 -76.5q104 0 188 60.5t128 154t44 197.5q0 120 -67.5 195t-186.5 75 q-104 0 -188 -60.5t-128 -153t-44 -195.5z" />
<glyph unicode="p" horiz-adv-x="1183" d="M53 -315q0 45 8 92l166 1052q6 47 6 78q0 19 -1.5 36t-3.5 25l-1 7h185q6 -23 6 -66t-8 -90h2q145 172 358 172q178 0 280.5 -111.5t102.5 -289.5q0 -117 -38.5 -226.5t-107 -196t-173.5 -138.5t-228 -52q-101 0 -178 42.5t-117 130.5l-63 -388q-4 -27 -4 -75 q0 -19 1.5 -36t2.5 -25l2 -7h-191q-6 23 -6 66zM350 414q0 -119 65 -193t183 -74q106 0 189 62t125 155.5t42 198.5q0 119 -65 192.5t-182 73.5q-81 0 -149.5 -36t-113 -95t-69.5 -133t-25 -151z" />
<glyph unicode="q" horiz-adv-x="1175" d="M92 383q0 116 38 224.5t106 194.5t171.5 137.5t225.5 51.5q212 0 307 -172h2q7 44 20 83t22 56l9 17h178q-31 -43 -41 -113l-172 -1100q-4 -27 -4 -75q0 -19 2 -36t4 -25l1 -7h-193q-6 23 -6 66q0 45 8 92l59 375h-2q-67 -84 -157 -129.5t-193 -45.5q-179 0 -282 112.5 t-103 293.5zM291 414q0 -119 65.5 -193t182.5 -74q107 0 190 62t124.5 155.5t41.5 198.5q0 119 -65.5 192.5t-182.5 73.5q-107 0 -190 -61.5t-124.5 -155t-41.5 -198.5z" />
<glyph unicode="r" horiz-adv-x="665" d="M88 0l131 831q4 27 4 76q0 19 -1.5 36t-3.5 25l-1 7h193q6 -23 6 -66q0 -42 -8 -86h2q44 76 111 122t149 46q65 0 96 -16l-41 -184h-10q-35 18 -99 18q-60 0 -107.5 -30.5t-77.5 -81t-47.5 -102t-27.5 -108.5l-77 -487h-191z" />
<glyph unicode="s" horiz-adv-x="823" d="M20 154l109 112q37 -61 109.5 -98t146.5 -37q80 0 140.5 39.5t60.5 116.5q0 35 -23.5 62t-60.5 44.5t-82 33t-90 35t-82 44.5t-60.5 65.5t-23.5 94.5q0 144 105.5 234.5t256.5 90.5q96 0 169 -31.5t132 -103.5l-102 -111q-88 101 -211 101q-70 0 -121 -34t-51 -101 q0 -42 44 -71.5t106.5 -52t125 -50t106.5 -80.5t44 -129q0 -106 -58.5 -187.5t-150.5 -122.5t-199 -41q-105 0 -196.5 45.5t-143.5 131.5z" />
<glyph unicode="t" horiz-adv-x="618" d="M115 811l26 162h138l22 143q6 46 6 78q0 19 -1.5 36t-3.5 24l-1 8h193q6 -23 6 -66q0 -45 -8 -94l-21 -129h223l-24 -162h-226q-7 -41 -30.5 -164.5t-37.5 -220t-14 -168.5q0 -57 17.5 -82.5t69.5 -25.5q63 0 112 22l-14 -162q-87 -33 -178 -33q-205 0 -205 211 q0 90 14.5 195.5t40 241t33.5 186.5h-137z" />
<glyph unicode="u" horiz-adv-x="1064" d="M129 254q0 70 12 137l70 436q6 47 6 78q0 19 -1.5 36t-3.5 25l-1 7h190q7 -23 7 -66q0 -39 -9 -94l-65 -414q-8 -62 -8 -92q0 -162 159 -162q62 0 112 26.5t83 72t53.5 97.5t30.5 112l84 520h190l-131 -830q-4 -27 -4 -75q0 -19 1.5 -36t3.5 -24l1 -8h-188q-6 23 -6 66 q0 40 4 67q-55 -73 -138.5 -114.5t-174.5 -41.5q-277 0 -277 277z" />
<glyph unicode="v" horiz-adv-x="958" d="M113 975h200l160 -727l391 727h199l-547 -975h-166z" />
<glyph unicode="w" horiz-adv-x="1511" d="M131 975h195l100 -729l360 729h152l129 -729l330 729h196l-465 -975h-176l-131 721l-360 -721h-174z" />
<glyph unicode="x" horiz-adv-x="985" d="M-47 0l463 512l-266 463h215l182 -348l291 348h215l-412 -463l301 -512h-219l-213 393l-338 -393h-219z" />
<glyph unicode="y" horiz-adv-x="950" d="M-27 -358l64 161q50 -24 94 -24q33 0 61 15.5t50 47t36 56.5t32.5 68t25.5 57l-223 950h200l156 -750l395 750h199l-633 -1143q-26 -48 -51.5 -83t-60 -70t-79 -53.5t-94.5 -18.5q-102 0 -172 37z" />
<glyph unicode="z" horiz-adv-x="905" d="M-2 0l20 123l654 688h-518l26 160h762l-18 -121l-652 -684h570l-25 -166h-819z" />
<glyph unicode="{" horiz-adv-x="563" d="M68 559l24 152q66 0 104.5 47t52.5 121.5t21 165t21.5 181t43.5 165t96 121.5t171 47h90l-18 -119q-37 0 -55.5 -1t-43.5 -4.5t-37.5 -12t-26.5 -23.5t-21.5 -38t-12.5 -56l-63 -408q-17 -109 -55 -170t-130 -88l-2 -6q62 -20 86.5 -57t24.5 -105q0 -92 -39 -276.5 t-39 -276.5q0 -18 4.5 -32t9.5 -23t17.5 -15.5t20 -9.5t25.5 -4.5t25.5 -2t28.5 0t27 0.5l-19 -119h-88q-109 0 -162 43t-53 148q0 91 38 271.5t38 270.5q0 55 -25 84.5t-79 28.5z" />
<glyph unicode="|" horiz-adv-x="581" d="M178 -244v1882h144v-1882h-144z" />
<glyph unicode="}" horiz-adv-x="563" d="M-14 -287l18 119q29 0 42.5 0.5t35 2t31.5 4.5t25 9.5t22.5 16t16.5 23.5t14.5 33t9.5 44l63 408q17 110 55 171.5t130 88.5v6q-62 20 -86.5 57t-24.5 105q0 92 39 276.5t39 276.5q0 16 -2.5 28.5t-9.5 21t-12.5 15.5t-18 10.5t-19.5 6t-23.5 3.5t-23 1h-25.5h-24l21 119 h88q108 0 160.5 -43t52.5 -148q0 -91 -37 -272t-37 -271q0 -114 104 -114l-24 -152q-66 0 -104.5 -46t-52.5 -121t-21.5 -165t-22.5 -180.5t-44 -165t-96 -121.5t-171 -47h-88z" />
<glyph unicode="~" horiz-adv-x="1366" d="M117 551q129 207 305 207q46 0 96 -14t76.5 -26.5t71.5 -35.5q43 -22 67.5 -34t63 -24t69.5 -12q110 0 197 144l104 -101q-125 -206 -305 -206q-46 0 -96.5 14t-73.5 24.5t-74 36.5q-6 3 -26.5 13.5t-29.5 14.5t-27.5 12.5t-30 12t-27.5 8.5t-30.5 7t-28.5 2 q-109 0 -197 -143z" />
<glyph unicode="&#xa1;" horiz-adv-x="598" d="M86 -440l180 1038h166l-145 -1038h-201zM258 840q0 66 45 110.5t111 44.5q49 0 80.5 -28t31.5 -78q0 -65 -44.5 -109.5t-110.5 -44.5q-49 0 -81 28t-32 77z" />
<glyph unicode="&#xa2;" d="M197 532q0 111 38.5 214.5t106 184t166 133.5t211.5 64l29 183h120l-28 -181q72 -5 158 -38t118 -82l-86 -144q-30 43 -92 70.5t-123 34.5l-108 -684q62 2 140 33t122 73l35 -143q-50 -52 -147 -89.5t-177 -39.5l-29 -182h-121l29 184q-165 19 -263.5 130t-98.5 279z M387 561q0 -101 52 -173t149 -93l106 670q-134 -27 -220.5 -146t-86.5 -258z" />
<glyph unicode="&#xa3;" d="M80 0l26 162h230q121 163 121 420h-226l21 135h203q-3 17 -12.5 64.5t-13.5 72.5t-8.5 64t-4.5 71q0 193 123.5 319t320.5 126q232 0 314 -170l-107 -117q-71 135 -219 135q-125 0 -188.5 -84.5t-63.5 -212.5q0 -41 5.5 -82t19 -105t16.5 -81h295l-21 -135h-272 q0 -252 -123 -420h528l-26 -162h-938z" />
<glyph unicode="&#xa4;" d="M106 510l23 137h117q4 49 20 137h-116l22 136h133q32 102 84.5 191.5t125 163t170 116.5t206.5 43q199 0 328 -140l-91 -157q-87 135 -258 135q-71 0 -132.5 -30.5t-105 -83t-74.5 -111t-52 -127.5h491l-22 -136h-508q-18 -108 -21 -139h506l-20 -135h-492v-27 q-1 -65 13 -122.5t43 -106t80.5 -76.5t119.5 -28q91 0 165.5 38.5t148.5 110.5l59 -133q-74 -93 -181.5 -142t-230.5 -49q-90 0 -162 30t-119 80t-78.5 119.5t-45 145.5t-12.5 160h-134z" />
<glyph unicode="&#xa5;" d="M152 395l22 135h350l11 66l-27 82h-311l22 135h236l-242 600h217l229 -635l428 635h218l-433 -600h238l-23 -135h-311l-51 -80l-10 -68h350l-23 -135h-348l-63 -395h-191l62 395h-350z" />
<glyph unicode="&#xa6;" horiz-adv-x="581" d="M178 0v639h144v-639h-144zM178 997v641h144v-641h-144z" />
<glyph unicode="&#xa7;" horiz-adv-x="1214" d="M121 -152l137 86q21 -90 92 -139t168 -49q101 0 170.5 57.5t69.5 155.5q0 50 -28 89.5t-72 66.5t-98 52.5t-108 54.5t-98 63.5t-72 88t-28 120.5q0 119 71 216t179 138q-49 36 -76 93t-27 120q0 166 121 269.5t295 103.5q126 0 218 -53.5t128 -166.5l-119 -92 q-29 82 -92 126t-151 44q-92 0 -155.5 -54t-63.5 -144q0 -46 26.5 -82.5t68.5 -62t92.5 -50t101.5 -53t93 -63.5t68.5 -88.5t26.5 -121.5q0 -120 -66 -209t-176 -137q59 -36 91 -99t32 -134q0 -118 -64 -209.5t-166 -138.5t-221 -47q-300 0 -368 249zM424 539 q0 -33 15.5 -62.5t36.5 -50t56.5 -42.5t60.5 -34t66 -30t56 -25q78 28 126 91.5t48 145.5q0 33 -15.5 63.5t-35.5 51t-56.5 43t-60.5 33.5t-66.5 29.5t-56.5 25.5q-77 -26 -125.5 -92t-48.5 -147z" />
<glyph unicode="&#xa8;" horiz-adv-x="665" d="M231 1245q0 52 35.5 90.5t87.5 38.5q40 0 65 -25t25 -65q0 -52 -36.5 -90.5t-88.5 -38.5q-38 0 -63 25t-25 65zM532 1245q0 52 36.5 90.5t88.5 38.5q40 0 65.5 -25t25.5 -65q0 -52 -36.5 -90.5t-88.5 -38.5q-40 0 -65.5 25t-25.5 65z" />
<glyph unicode="&#xa9;" horiz-adv-x="1611" d="M37 707q0 151 56.5 286.5t153.5 232.5t232.5 153.5t286.5 56.5t286 -56.5t232 -153.5t154 -232.5t57 -286.5q0 -202 -96.5 -369.5t-264 -264t-368.5 -96.5q-202 0 -369.5 96.5t-263.5 264t-96 369.5zM133 707q0 -129 50 -246t135 -202t202 -135t246 -50t246 50t202 135 t135 202t50 246q0 172 -85 317.5t-231 230t-317 84.5q-172 0 -318 -84.5t-230.5 -230t-84.5 -317.5zM369 707q0 190 122.5 312t305.5 122q110 0 188.5 -36t120.5 -83l-66 -98q-31 39 -93.5 70.5t-145.5 31.5q-125 0 -210 -83t-85 -232t83 -233.5t212 -84.5q148 0 250 99 l63 -91q-42 -49 -123 -89t-194 -40q-183 0 -305.5 122.5t-122.5 312.5z" />
<glyph unicode="&#xaa;" horiz-adv-x="698" d="M104 528q0 34 8 62t20 48.5t33.5 37t40 27t50 19t52 12.5t56.5 7t55 4t55.5 2t49.5 1q4 20 4 36q0 51 -34 75t-88 24q-43 0 -96 -15t-87 -39l-33 95q112 67 244 67q107 0 171.5 -46t64.5 -148q0 -60 -10 -129t-27 -155t-23 -128h-139l8 70q-37 -36 -90.5 -58t-103.5 -22 q-75 0 -128 40t-53 113zM256 551q0 -74 96 -74q36 0 75.5 19t64.5 47l18 116q-10 0 -38 0.5t-47 -0.5t-47 -3.5t-47 -9.5t-37.5 -18.5t-28 -31t-9.5 -45.5z" />
<glyph unicode="&#xab;" horiz-adv-x="970" d="M141 487l359 406l92 -80l-285 -326l182 -327l-118 -80zM467 487l360 406l93 -80l-285 -326l182 -327l-119 -80z" />
<glyph unicode="&#xac;" horiz-adv-x="1370" d="M106 803v151h1072v-612h-152v461h-920z" />
<glyph unicode="&#xad;" horiz-adv-x="579" d="M82 479l27 164h481l-27 -164h-481z" />
<glyph unicode="&#xae;" horiz-adv-x="1611" d="M37 707q0 151 56.5 286.5t153.5 232.5t232.5 153.5t286.5 56.5t286 -56.5t232 -153.5t154 -232.5t57 -286.5q0 -202 -96.5 -369.5t-264 -264t-368.5 -96.5q-202 0 -369.5 96.5t-263.5 264t-96 369.5zM133 707q0 -129 50 -246t135 -202t202 -135t246 -50q128 0 245 50 t202 135t135.5 202t50.5 246q0 172 -85 317.5t-231 230t-317 84.5q-172 0 -318 -84.5t-230.5 -230t-84.5 -317.5zM500 285v843l291 -2q110 0 187 -65t77 -178q0 -56 -17.5 -100.5t-47 -70.5t-59.5 -41t-63 -22l228 -364h-158l-203 350h-104v-350h-131zM631 743h112 q177 0 177 138q0 137 -177 137h-112v-275z" />
<glyph unicode="&#xaf;" horiz-adv-x="665" d="M242 1171l18 113h512l-16 -113h-514z" />
<glyph unicode="&#xb0;" horiz-adv-x="843" d="M66 1196q0 132 92 220.5t223 88.5t223 -88.5t92 -220.5q0 -133 -92 -222t-223 -89t-223 89t-92 222zM182 1196q0 -83 57 -142t142 -59t143 59t58 142q0 81 -58 140t-143 59t-142 -59t-57 -140z" />
<glyph unicode="&#xb1;" horiz-adv-x="1366" d="M106 176v150h1072v-150h-1072zM106 811v150h459v399h154v-399h459v-150h-459v-399h-154v399h-459z" />
<glyph unicode="&#xb2;" horiz-adv-x="751" d="M141 592l9 108l360 316q39 34 56.5 50.5t48 50.5t44 67.5t13.5 68.5q0 56 -41.5 83.5t-100.5 27.5q-142 0 -217 -156l-84 62q29 101 125.5 161t206.5 60q106 0 181 -54t75 -155q0 -44 -15 -87.5t-32 -72.5t-55.5 -70t-57.5 -58.5t-66 -57.5q-11 -9 -16 -14l-231 -203h404 l-19 -127h-588z" />
<glyph unicode="&#xb3;" horiz-adv-x="751" d="M162 776l106 66q12 -64 59 -99.5t113 -35.5q77 0 136 46.5t59 120.5q0 28 -8.5 49t-24.5 34t-34 21.5t-43 12.5t-44 5t-45 1l19 119q223 0 223 154q0 49 -36 74.5t-87 25.5q-127 0 -203 -121l-71 74q47 79 126 123.5t173 44.5q97 0 169 -52.5t72 -146.5q0 -77 -47.5 -139 t-122.5 -92q59 -19 93 -66.5t34 -109.5q0 -88 -52 -159t-131 -107.5t-165 -36.5q-106 0 -178 48t-90 146z" />
<glyph unicode="&#xb4;" horiz-adv-x="665" d="M283 1116l223 297h190l-266 -297h-147z" />
<glyph unicode="&#xb5;" horiz-adv-x="1075" d="M27 -381l213 1352h192l-88 -549q-8 -66 -8 -100q0 -175 162 -175q118 0 185.5 79t86.5 204l86 541h193l-154 -973h-188l20 127q-51 -60 -130.5 -100.5t-152.5 -40.5q-50 0 -97 18t-64 55l-68 -438h-188z" />
<glyph unicode="&#xb6;" horiz-adv-x="1193" d="M207 899q0 237 138 375.5t380 138.5h528l-22 -145h-101l-262 -1649h-145l260 1649h-174l-262 -1649h-146l150 946q-158 3 -251 90t-93 244z" />
<glyph unicode="&#xb7;" horiz-adv-x="671" d="M252 567q0 64 45 108t109 44q49 0 80.5 -28.5t31.5 -76.5q0 -64 -44 -107.5t-109 -43.5q-49 0 -81 28t-32 76z" />
<glyph unicode="&#xb8;" horiz-adv-x="694" d="M86 -299l250 299h137l-211 -299h-176z" />
<glyph unicode="&#xb9;" horiz-adv-x="751" d="M379 1356l18 114h310l-140 -880h-145l123 766h-166z" />
<glyph unicode="&#xba;" horiz-adv-x="782" d="M141 629q0 151 104 256.5t259 105.5q116 0 190 -69.5t74 -184.5q0 -151 -104 -256.5t-258 -105.5q-116 0 -190.5 69.5t-74.5 184.5zM287 647q0 -65 37.5 -106t101.5 -41q87 0 142 68.5t55 158.5q0 64 -37.5 103.5t-102.5 39.5q-87 0 -141.5 -67t-54.5 -156z" />
<glyph unicode="&#xbb;" horiz-adv-x="970" d="M113 162l284 325l-182 328l121 78l229 -406l-358 -407zM440 162l285 325l-182 328l121 78l229 -406l-358 -407z" />
<glyph unicode="&#xbc;" horiz-adv-x="1767" d="M258 14l1067 1434l92 -64l-1069 -1431zM295 1298l18 115h312l-131 -821h-146l113 706h-166zM885 178l14 94l551 625h137l-94 -594h123l-21 -125h-122l-29 -178h-146l29 178h-442zM1063 303h285l65 402z" />
<glyph unicode="&#xbd;" horiz-adv-x="1769" d="M250 14l1069 1434l90 -64l-1067 -1431zM291 1298l18 115h309l-135 -852h-143l115 737h-164zM1008 96l329 277q39 33 61 54t54.5 57t48 73t15.5 74q0 56 -37.5 87.5t-94.5 31.5q-113 0 -221 -142l-65 90q54 85 138.5 132t184.5 47q101 0 171.5 -55.5t70.5 -153.5 q0 -54 -24.5 -110.5t-58.5 -101.5t-88 -97t-95 -85.5t-98.5 -79t-81.5 -65.5h397l-21 -129h-579z" />
<glyph unicode="&#xbe;" horiz-adv-x="1767" d="M160 776l108 64q12 -63 59 -99t113 -36q76 0 135.5 47t59.5 120q0 34 -13 58t-31.5 36.5t-48 20t-52.5 9t-54 1.5l19 117q223 4 223 156q0 49 -36.5 74.5t-88.5 25.5q-125 0 -201 -121l-71 72q47 81 126 125.5t173 44.5q97 0 169 -52.5t72 -146.5q0 -77 -47.5 -139 t-122.5 -92q60 -20 93.5 -67.5t33.5 -110.5q0 -132 -107 -217.5t-243 -85.5q-104 0 -176.5 48.5t-91.5 147.5zM344 14l1069 1434l92 -64l-1069 -1431zM885 178l14 94l551 625h137l-94 -594h123l-21 -125h-122l-29 -178h-146l29 178h-442zM1063 303h285l65 402z" />
<glyph unicode="&#xbf;" horiz-adv-x="978" d="M45 -176q0 65 16 120.5t44 96.5t62.5 76t73.5 66t75 59.5t70 63.5t54 71q13 22 22.5 53t13.5 52t10 62t8 54h163q-2 -16 -8 -68t-10.5 -74.5t-13.5 -62.5t-24 -70.5t-36 -58.5q-26 -36 -72.5 -75.5t-89 -72.5t-83 -71t-65 -85t-24.5 -99q0 -78 55 -116t138 -38 q82 0 153 41t123 111l72 -127q-69 -93 -176 -143t-227 -50q-136 0 -230 75.5t-94 209.5zM483 838q0 66 44.5 110.5t109.5 44.5q51 0 83 -28t32 -78q0 -65 -45 -109.5t-111 -44.5q-49 0 -81 28.5t-32 76.5z" />
<glyph unicode="&#xc0;" horiz-adv-x="1290" d="M-41 0l778 1417h170l330 -1417h-217l-80 369h-580l-196 -369h-205zM442 537h469l-135 626zM600 1819h188l130 -301h-148z" />
<glyph unicode="&#xc1;" horiz-adv-x="1290" d="M-41 0l778 1417h170l330 -1417h-217l-80 369h-580l-196 -369h-205zM442 537h469l-135 626zM758 1518l225 301h191l-269 -301h-147z" />
<glyph unicode="&#xc2;" horiz-adv-x="1290" d="M-41 0l778 1417h170l330 -1417h-217l-80 369h-580l-196 -369h-205zM442 537h469l-135 626zM578 1518l229 301h158l133 -301h-142l-86 198l-149 -198h-143z" />
<glyph unicode="&#xc3;" horiz-adv-x="1290" d="M-41 0l778 1417h170l330 -1417h-217l-80 369h-580l-196 -369h-205zM442 537h469l-135 626zM539 1583q18 78 78.5 135.5t136.5 57.5q51 0 94 -24t78.5 -47.5t66.5 -23.5q34 0 60.5 25.5t38.5 60.5l92 -20q-18 -76 -78.5 -134.5t-134.5 -58.5q-41 0 -77.5 15t-58.5 33.5 t-50 33.5t-54 15q-34 0 -60 -26t-38 -62z" />
<glyph unicode="&#xc4;" horiz-adv-x="1290" d="M-41 0l778 1417h170l330 -1417h-217l-80 369h-580l-196 -369h-205zM442 537h469l-135 626zM604 1636q0 54 36 93.5t89 39.5q40 0 64 -25t24 -65q0 -53 -36 -93t-89 -40q-39 0 -63.5 25.5t-24.5 64.5zM903 1636q0 53 36.5 93t88.5 40q40 0 65 -25t25 -65q0 -52 -37 -92.5 t-88 -40.5q-39 0 -64.5 25.5t-25.5 64.5z" />
<glyph unicode="&#xc5;" horiz-adv-x="1290" d="M-41 0l778 1417h170l330 -1417h-217l-80 369h-580l-196 -369h-205zM442 537h469l-135 626zM664 1649q0 94 68.5 161.5t162.5 67.5q73 0 121.5 -45t48.5 -117q0 -95 -68.5 -163t-162.5 -68q-73 0 -121.5 45t-48.5 119zM762 1663q0 -38 24 -62t62 -24q49 0 84 37.5t35 85.5 q0 38 -24 62t-62 24q-49 0 -84 -37.5t-35 -85.5z" />
<glyph unicode="&#xc6;" horiz-adv-x="1687" d="M-102 0l1020 1413h837l-26 -170h-549l-66 -407h516l-28 -170h-515l-77 -494h563l-27 -172h-758l58 371h-469l-262 -371h-217zM487 541h385l113 706h-2z" />
<glyph unicode="&#xc7;" horiz-adv-x="1320" d="M129 563q0 115 27.5 225.5t78 206.5t125 177t164.5 139t200 90.5t228 32.5q135 0 256 -46.5t199 -142.5l-109 -162q-49 81 -155.5 126.5t-210.5 45.5q-130 0 -243 -54.5t-190 -145.5t-121 -209.5t-44 -245.5q0 -197 115 -317.5t311 -120.5q120 0 232 44.5t200 127.5 l61 -148q-203 -197 -489 -209l-172 -284h-197l209 291q-218 35 -346.5 190.5t-128.5 388.5z" />
<glyph unicode="&#xc8;" horiz-adv-x="1054" d="M106 0l226 1413h796l-26 -168h-604l-66 -418h572l-29 -170h-569l-78 -485h620l-26 -172h-816zM539 1819h190l129 -301h-147z" />
<glyph unicode="&#xc9;" horiz-adv-x="1054" d="M106 0l226 1413h796l-26 -168h-604l-66 -418h572l-29 -170h-569l-78 -485h620l-26 -172h-816zM610 1518l226 301h188l-266 -301h-148z" />
<glyph unicode="&#xca;" horiz-adv-x="1054" d="M106 0l226 1413h796l-26 -168h-604l-66 -418h572l-29 -170h-569l-78 -485h620l-26 -172h-816zM485 1518l230 301h157l134 -301h-142l-86 198l-149 -198h-144z" />
<glyph unicode="&#xcb;" horiz-adv-x="1054" d="M106 0l226 1413h796l-26 -170h-604l-66 -416h572l-29 -170h-569l-78 -485h620l-26 -172h-816zM512 1636q0 54 36 93.5t89 39.5q40 0 64 -25t24 -65q0 -53 -36 -93t-89 -40q-39 0 -63.5 25.5t-24.5 64.5zM813 1636q0 54 36 93.5t89 39.5q40 0 64 -25t24 -65q0 -53 -36 -93 t-89 -40q-39 0 -63.5 25.5t-24.5 64.5z" />
<glyph unicode="&#xcc;" horiz-adv-x="495" d="M106 0l226 1413h194l-225 -1413h-195zM223 1819h191l129 -301h-148z" />
<glyph unicode="&#xcd;" horiz-adv-x="495" d="M106 0l226 1413h194l-225 -1413h-195zM346 1518l225 301h191l-268 -301h-148z" />
<glyph unicode="&#xce;" horiz-adv-x="495" d="M106 0l226 1413h194l-225 -1413h-195zM184 1518l230 301h157l134 -301h-142l-86 198l-151 -198h-142z" />
<glyph unicode="&#xcf;" horiz-adv-x="495" d="M106 0l226 1413h194l-225 -1413h-195zM211 1645q0 54 36 93.5t89 39.5q39 0 63.5 -25.5t24.5 -64.5q0 -54 -35.5 -94t-87.5 -40q-39 0 -64.5 26t-25.5 65zM512 1645q0 54 36 93.5t89 39.5q39 0 63.5 -25.5t24.5 -64.5q0 -54 -35.5 -94t-87.5 -40q-39 0 -64.5 26t-25.5 65 z" />
<glyph unicode="&#xd0;" horiz-adv-x="1361" d="M84 664l25 151h127l96 598h409q179 0 317.5 -65.5t220 -197t81.5 -312.5q0 -235 -109.5 -427t-303 -301.5t-431.5 -109.5h-410l107 664h-129zM330 176h217q173 0 314 85t219.5 229.5t78.5 318.5q0 201 -121 315.5t-323 114.5h-217l-68 -424h344l-22 -149h-344z" />
<glyph unicode="&#xd1;" horiz-adv-x="1468" d="M106 0l226 1413h203l589 -1104q44 297 174 1104h191l-223 -1413h-191l-602 1120q-27 -188 -174 -1120h-193zM629 1583q16 77 76 135t137 58q52 0 95 -24t78 -47.5t66 -23.5q34 0 60.5 25.5t38.5 60.5l92 -20q-16 -76 -76.5 -134.5t-136.5 -58.5q-41 0 -77.5 15 t-58.5 33.5t-50 33.5t-54 15q-34 0 -60 -26t-38 -62z" />
<glyph unicode="&#xd2;" horiz-adv-x="1560" d="M129 565q0 173 62 331.5t170 277.5t264 189.5t333 70.5q267 0 432.5 -161.5t165.5 -428.5q0 -138 -39 -268.5t-113 -238.5t-174 -189.5t-229.5 -127t-271.5 -45.5q-267 0 -433.5 162t-166.5 428zM332 600q0 -196 116 -318t310 -122q130 0 243 55.5t190 147t121 211 t44 245.5q0 196 -115.5 318.5t-308.5 122.5q-172 0 -311.5 -95t-214 -245t-74.5 -320zM729 1819h189l129 -301h-148z" />
<glyph unicode="&#xd3;" horiz-adv-x="1560" d="M129 565q0 173 62 331.5t170 277.5t264 189.5t333 70.5q267 0 432.5 -161.5t165.5 -428.5q0 -138 -39 -268.5t-113 -238.5t-174 -189.5t-229.5 -127t-271.5 -45.5q-267 0 -433.5 162t-166.5 428zM332 600q0 -196 116 -318t310 -122q130 0 243 55.5t190 147t121 211 t44 245.5q0 196 -115.5 318.5t-308.5 122.5q-172 0 -311.5 -95t-214 -245t-74.5 -320zM897 1518l225 301h189l-267 -301h-147z" />
<glyph unicode="&#xd4;" horiz-adv-x="1560" d="M129 565q0 173 62 331.5t170 277.5t264 189.5t333 70.5q267 0 432.5 -161.5t165.5 -428.5q0 -138 -39 -268.5t-113 -238.5t-174 -189.5t-229.5 -127t-271.5 -45.5q-267 0 -433.5 162t-166.5 428zM332 600q0 -196 116 -318t310 -122q130 0 243 55.5t190 147t121 211 t44 245.5q0 196 -115.5 318.5t-308.5 122.5q-172 0 -311.5 -95t-214 -245t-74.5 -320zM713 1518l229 301h156l135 -301h-143l-86 198l-150 -198h-141z" />
<glyph unicode="&#xd5;" horiz-adv-x="1560" d="M129 565q0 173 62 331.5t170 277.5t264 189.5t333 70.5q267 0 432.5 -161.5t165.5 -428.5q0 -138 -39 -268.5t-113 -238.5t-174 -189.5t-229.5 -127t-271.5 -45.5q-267 0 -433.5 162t-166.5 428zM332 600q0 -196 116 -318t310 -122q130 0 243 55.5t190 147t121 211 t44 245.5q0 196 -115.5 318.5t-308.5 122.5q-172 0 -311.5 -95t-214 -245t-74.5 -320zM674 1583q18 77 78 135t135 58q52 0 95 -24t78 -47.5t66 -23.5q34 0 60.5 25.5t38.5 60.5l94 -20q-18 -77 -78.5 -135t-136.5 -58q-40 0 -76.5 15t-59 33.5t-50.5 33.5t-54 15 q-34 0 -60 -26t-38 -62z" />
<glyph unicode="&#xd6;" horiz-adv-x="1560" d="M129 565q0 173 62 331.5t170 277.5t264 189.5t333 70.5q267 0 432.5 -161.5t165.5 -428.5q0 -138 -39 -268.5t-113 -238.5t-174 -189.5t-229.5 -127t-271.5 -45.5q-267 0 -433.5 162t-166.5 428zM332 600q0 -196 116 -318t310 -122q130 0 243 55.5t190 147t121 211 t44 245.5q0 196 -115.5 318.5t-308.5 122.5q-172 0 -311.5 -95t-214 -245t-74.5 -320zM737 1636q0 54 36 93.5t89 39.5q40 0 64 -25t24 -65q0 -52 -36 -92.5t-87 -40.5q-39 0 -64.5 25.5t-25.5 64.5zM1038 1636q0 54 36 93.5t89 39.5q40 0 64 -25t24 -65q0 -52 -36 -92.5 t-87 -40.5q-39 0 -64.5 25.5t-25.5 64.5z" />
<glyph unicode="&#xd7;" horiz-adv-x="1366" d="M125 295l410 410l-410 409l104 111l414 -412l412 412l106 -111l-409 -409l409 -410l-106 -111l-412 412l-414 -412z" />
<glyph unicode="&#xd8;" horiz-adv-x="1560" d="M43 68l178 159q-92 146 -92 338q0 173 62 331.5t170 277.5t264 189.5t333 70.5q259 0 426 -154l183 166l82 -100l-183 -164q90 -143 90 -338q0 -138 -39 -268.5t-113 -238.5t-174 -189.5t-229.5 -127t-271.5 -45.5q-259 0 -426 154l-178 -162zM332 600q0 -131 51 -225 l850 770q-118 115 -301 115q-172 0 -311.5 -95t-214 -245t-74.5 -320zM459 270q116 -110 299 -110q130 0 243 55.5t190 147t121 211t44 245.5q0 127 -47 221z" />
<glyph unicode="&#xd9;" horiz-adv-x="1325" d="M170 381q0 78 18 197l134 835h194l-129 -817q-18 -103 -18 -174q0 -125 72.5 -194.5t199.5 -69.5q80 0 142.5 24t103 63t70.5 98t46.5 118t28.5 135l129 817h197l-133 -835q-94 -603 -613 -603q-202 0 -322 104t-120 302zM649 1819h189l129 -301h-146z" />
<glyph unicode="&#xda;" horiz-adv-x="1325" d="M170 381q0 78 18 197l134 835h194l-129 -817q-18 -103 -18 -174q0 -125 72.5 -194.5t199.5 -69.5q80 0 142.5 24t103 63t70.5 98t46.5 118t28.5 135l129 817h197l-133 -835q-94 -603 -613 -603q-202 0 -322 104t-120 302zM743 1518l226 301h188l-266 -301h-148z" />
<glyph unicode="&#xdb;" horiz-adv-x="1325" d="M170 381q0 78 18 197l134 835h194l-129 -817q-18 -103 -18 -174q0 -125 72.5 -194.5t199.5 -69.5q80 0 142.5 24t103 63t70.5 98t46.5 118t28.5 135l129 817h197l-133 -835q-94 -603 -613 -603q-202 0 -322 104t-120 302zM596 1518l229 301h156l135 -301h-143l-86 198 l-150 -198h-141z" />
<glyph unicode="&#xdc;" horiz-adv-x="1325" d="M170 381q0 78 18 197l134 835h194l-129 -817q-18 -103 -18 -174q0 -125 72.5 -194.5t199.5 -69.5q80 0 142.5 24t103 63t70.5 98t46.5 118t28.5 135l129 817h197l-133 -835q-94 -603 -613 -603q-202 0 -322 104t-120 302zM621 1636q0 54 35.5 93.5t88.5 39.5 q40 0 64.5 -25t24.5 -65q0 -52 -36 -92.5t-87 -40.5q-39 0 -64.5 25.5t-25.5 64.5zM922 1636q0 54 36 93.5t89 39.5q40 0 64 -25t24 -65q0 -52 -36 -92.5t-87 -40.5q-39 0 -64.5 25.5t-25.5 64.5z" />
<glyph unicode="&#xdd;" horiz-adv-x="1142" d="M176 1413h221l248 -645l455 645h219l-604 -821l-92 -592h-197l94 592zM651 1518l226 301h188l-266 -301h-148z" />
<glyph unicode="&#xde;" horiz-adv-x="1046" d="M106 0l226 1413h194l-43 -266q194 0 271 -11q223 -31 282 -178q23 -59 23 -137q0 -151 -71 -262t-190.5 -166t-271.5 -55h-172l-53 -338h-195zM381 504h154q139 0 229 74t90 210q0 53 -19.5 92t-54.5 61t-77 32t-93 10h-153z" />
<glyph unicode="&#xdf;" horiz-adv-x="1110" d="M12 -381q33 60 47 150l183 1146q16 98 35 168.5t55 140.5t86 113.5t128 70t181 26.5q132 0 224.5 -69.5t92.5 -197.5q0 -133 -64.5 -221t-168.5 -112v-3q119 -18 187.5 -111.5t68.5 -217.5q0 -154 -74.5 -272.5t-200.5 -181t-282 -62.5q-58 0 -113 12l37 158 q40 -11 92 -11q152 0 250 99t98 252q0 61 -19.5 105.5t-49 69.5t-76 39.5t-89.5 18.5t-101 4l22 154q303 0 303 243q0 72 -51 114t-125 42q-50 0 -89.5 -16t-64.5 -40.5t-43 -63t-27.5 -75t-17.5 -85.5l-194 -1227q-7 -45 -19.5 -85t-20.5 -58l-9 -17h-191z" />
<glyph unicode="&#xe0;" horiz-adv-x="1185" d="M92 385q0 116 37.5 224.5t105.5 194.5t171.5 137.5t226.5 51.5q100 0 179 -42.5t122 -127.5l24 152h191l-131 -832q-4 -34 -4 -75q0 -19 1.5 -36t2.5 -24l2 -8h-186q-7 23 -7 66q0 47 11 92q-67 -84 -162 -132.5t-199 -48.5q-180 0 -282.5 113t-102.5 295zM291 416 q0 -119 65.5 -194t182.5 -75q107 0 190 62t124.5 155.5t41.5 198.5q0 119 -65 192.5t-183 73.5q-106 0 -189 -61t-125 -154.5t-42 -197.5zM393 1413h189l129 -297h-146z" />
<glyph unicode="&#xe1;" horiz-adv-x="1185" d="M92 385q0 116 37.5 224.5t105.5 194.5t171.5 137.5t226.5 51.5q100 0 179 -42.5t122 -127.5l24 152h191l-131 -832q-4 -34 -4 -75q0 -19 1.5 -36t2.5 -24l2 -8h-186q-7 23 -7 66q0 47 11 92q-67 -84 -162 -132.5t-199 -48.5q-180 0 -282.5 113t-102.5 295zM291 416 q0 -119 65.5 -194t182.5 -75q107 0 190 62t124.5 155.5t41.5 198.5q0 119 -65 192.5t-183 73.5q-106 0 -189 -61t-125 -154.5t-42 -197.5zM526 1116l224 297h190l-266 -297h-148z" />
<glyph unicode="&#xe2;" horiz-adv-x="1185" d="M92 385q0 116 37.5 224.5t105.5 194.5t171.5 137.5t226.5 51.5q100 0 179 -42.5t122 -127.5l24 152h191l-131 -832q-4 -34 -4 -75q0 -19 1.5 -36t2.5 -24l2 -8h-186q-7 23 -7 66q0 47 11 92q-67 -84 -162 -132.5t-199 -48.5q-180 0 -282.5 113t-102.5 295zM291 416 q0 -119 65.5 -194t182.5 -75q107 0 190 62t124.5 155.5t41.5 198.5q0 119 -65 192.5t-183 73.5q-106 0 -189 -61t-125 -154.5t-42 -197.5zM362 1116l230 297h156l135 -297h-142l-86 201l-151 -201h-142z" />
<glyph unicode="&#xe3;" horiz-adv-x="1185" d="M92 385q0 116 37.5 224.5t105.5 194.5t171.5 137.5t226.5 51.5q100 0 179 -42.5t122 -127.5l24 152h191l-131 -832q-4 -34 -4 -75q0 -19 1.5 -36t2.5 -24l2 -8h-186q-7 23 -7 66q0 47 11 92q-67 -84 -162 -132.5t-199 -48.5q-180 0 -282.5 113t-102.5 295zM291 416 q0 -119 65.5 -194t182.5 -75q107 0 190 62t124.5 155.5t41.5 198.5q0 119 -65 192.5t-183 73.5q-106 0 -189 -61t-125 -154.5t-42 -197.5zM342 1190q18 77 78 133.5t135 56.5q40 0 76.5 -14.5t59 -32.5t50.5 -32.5t54 -14.5q34 0 60 25t38 61l92 -22q-16 -75 -76 -132 t-137 -57q-40 0 -76.5 14.5t-59 32.5t-50.5 32.5t-54 14.5q-34 0 -60 -25t-38 -61z" />
<glyph unicode="&#xe4;" horiz-adv-x="1185" d="M92 385q0 116 37.5 224.5t105.5 194.5t171.5 137.5t226.5 51.5q100 0 179 -42.5t122 -127.5l24 152h191l-131 -832q-4 -34 -4 -75q0 -19 1.5 -36t2.5 -24l2 -8h-186q-7 23 -7 66q0 47 11 92q-67 -84 -162 -132.5t-199 -48.5q-180 0 -282.5 113t-102.5 295zM291 416 q0 -119 65.5 -194t182.5 -75q107 0 190 62t124.5 155.5t41.5 198.5q0 119 -65 192.5t-183 73.5q-106 0 -189 -61t-125 -154.5t-42 -197.5zM383 1245q0 52 35.5 90.5t87.5 38.5q40 0 65 -25t25 -65q0 -52 -36.5 -90.5t-88.5 -38.5q-38 0 -63 25t-25 65zM684 1245 q0 52 36.5 90.5t88.5 38.5q40 0 65 -25t25 -65q0 -52 -36.5 -90.5t-88.5 -38.5q-40 0 -65 25t-25 65z" />
<glyph unicode="&#xe5;" horiz-adv-x="1185" d="M92 385q0 116 37.5 224.5t105.5 194.5t171.5 137.5t226.5 51.5q100 0 179 -42.5t122 -127.5l24 152h191l-131 -832q-4 -34 -4 -75q0 -19 1.5 -36t2.5 -24l2 -8h-186q-7 23 -7 66q0 47 11 92q-67 -84 -162 -132.5t-199 -48.5q-180 0 -282.5 113t-102.5 295zM291 416 q0 -119 65.5 -194t182.5 -75q107 0 190 62t124.5 155.5t41.5 198.5q0 119 -65 192.5t-183 73.5q-106 0 -189 -61t-125 -154.5t-42 -197.5zM449 1272q0 93 69.5 160t163.5 67q72 0 121 -45t49 -117q0 -93 -69 -160t-162 -67q-74 0 -123 44.5t-49 117.5zM549 1286 q0 -38 24 -62t62 -24q48 0 82.5 37.5t34.5 85.5q0 38 -23.5 62t-60.5 24q-49 0 -84 -37.5t-35 -85.5z" />
<glyph unicode="&#xe6;" horiz-adv-x="1673" d="M47 227q0 88 31.5 154.5t82 106.5t122 65t141.5 34t151 9q79 0 146 -6q6 43 6 80q0 86 -55 129t-144 43q-73 0 -153.5 -23t-143.5 -61l-36 133q176 100 366 100q71 0 130 -14.5t111.5 -56t71.5 -107.5q85 85 198 132.5t241 47.5q149 0 240.5 -73t91.5 -189q0 -26 -11 -60 t-46 -80.5t-89.5 -84t-153.5 -64t-225 -26.5q-102 0 -231 18q-2 -17 -2 -37q0 -122 68.5 -192t189.5 -70q154 0 332 113l61 -117q-89 -76 -203.5 -115t-236.5 -39q-125 0 -217 51t-140 144q-94 -97 -191 -146t-220 -49q-120 0 -201.5 66t-81.5 184zM242 258q0 -68 48 -102.5 t118 -34.5q77 0 163.5 48.5t130.5 115.5q-8 41 -8 98q0 26 4 76q-85 10 -153 10q-303 0 -303 -211zM913 573q73 -12 162 -12q74 0 140.5 9.5t123 29t90 53.5t33.5 78q0 50 -47 85.5t-127 35.5q-134 0 -235.5 -78t-139.5 -201z" />
<glyph unicode="&#xe7;" horiz-adv-x="944" d="M92 393q0 116 43 224.5t117.5 191t182.5 132.5t229 50q99 0 191 -35.5t142 -103.5l-90 -145q-41 62 -108.5 92t-147.5 30q-78 0 -146.5 -35.5t-114.5 -93.5t-72.5 -131.5t-26.5 -148.5q0 -121 69 -197t189 -76q78 0 163.5 31t141.5 82l35 -149q-58 -52 -142.5 -85 t-175.5 -42l-194 -281h-191l232 283q-149 25 -237.5 136.5t-88.5 270.5z" />
<glyph unicode="&#xe8;" horiz-adv-x="1071" d="M92 383q0 162 81 302t224 224t314 84q148 0 239.5 -73t91.5 -189q0 -17 -5.5 -39.5t-21 -53.5t-39 -60.5t-65 -59.5t-94 -52t-130 -36t-169.5 -14q-102 0 -231 18q-2 -17 -2 -37q0 -122 68.5 -192t189.5 -70q87 0 165.5 29t165.5 84l62 -117q-89 -76 -203.5 -115 t-236.5 -39q-186 0 -295 110t-109 296zM311 573q74 -12 162 -12q74 0 140.5 9.5t123 29t90 53.5t33.5 78q0 50 -47 85.5t-127 35.5q-134 0 -235.5 -78t-139.5 -201zM377 1413h188l129 -297h-145z" />
<glyph unicode="&#xe9;" horiz-adv-x="1071" d="M92 383q0 162 81 302t224 224t314 84q148 0 239.5 -73t91.5 -189q0 -17 -5.5 -39.5t-21 -53.5t-39 -60.5t-65 -59.5t-94 -52t-130 -36t-169.5 -14q-102 0 -231 18q-2 -17 -2 -37q0 -122 68.5 -192t189.5 -70q87 0 165.5 29t165.5 84l62 -117q-89 -76 -203.5 -115 t-236.5 -39q-186 0 -295 110t-109 296zM311 573q74 -12 162 -12q74 0 140.5 9.5t123 29t90 53.5t33.5 78q0 50 -47 85.5t-127 35.5q-134 0 -235.5 -78t-139.5 -201zM481 1116l224 297h190l-266 -297h-148z" />
<glyph unicode="&#xea;" horiz-adv-x="1071" d="M92 383q0 162 81 302t224 224t314 84q148 0 239.5 -73t91.5 -189q0 -17 -5.5 -39.5t-21 -53.5t-39 -60.5t-65 -59.5t-94 -52t-130 -36t-169.5 -14q-102 0 -231 18q-2 -17 -2 -37q0 -122 68.5 -192t189.5 -70q87 0 165.5 29t165.5 84l62 -117q-89 -76 -203.5 -115 t-236.5 -39q-186 0 -295 110t-109 296zM311 573q74 -12 162 -12q74 0 140.5 9.5t123 29t90 53.5t33.5 78q0 50 -47 85.5t-127 35.5q-134 0 -235.5 -78t-139.5 -201zM373 1116l229 297h156l135 -297h-141l-86 201l-152 -201h-141z" />
<glyph unicode="&#xeb;" horiz-adv-x="1071" d="M92 383q0 162 81 302t224 224t314 84q148 0 239.5 -73t91.5 -189q0 -17 -5.5 -39.5t-21 -53.5t-39 -60.5t-65 -59.5t-94 -52t-130 -36t-169.5 -14q-102 0 -231 18q-2 -17 -2 -37q0 -122 68.5 -192t189.5 -70q87 0 165.5 29t165.5 84l62 -117q-89 -76 -203.5 -115 t-236.5 -39q-186 0 -295 110t-109 296zM311 573q74 -12 162 -12q74 0 140.5 9.5t123 29t90 53.5t33.5 78q0 50 -47 85.5t-127 35.5q-134 0 -235.5 -78t-139.5 -201zM365 1245q0 52 35 90.5t87 38.5q40 0 65.5 -25t25.5 -65q0 -52 -36.5 -90.5t-88.5 -38.5q-38 0 -63 25 t-25 65zM666 1245q0 52 36.5 90.5t88.5 38.5q40 0 65 -25t25 -65q0 -52 -36.5 -90.5t-88.5 -38.5q-40 0 -65 25t-25 65z" />
<glyph unicode="&#xec;" horiz-adv-x="466" d="M111 66q0 45 8 92l108 671q6 47 6 78q0 19 -1.5 36t-3.5 25l-1 7h191q6 -23 6 -66q0 -45 -8 -94l-107 -672q-4 -27 -4 -75q0 -19 1.5 -36t3.5 -24l1 -8h-194q-6 23 -6 66zM145 1413h191l129 -301h-148z" />
<glyph unicode="&#xed;" horiz-adv-x="466" d="M111 66q0 45 8 92l108 671q6 47 6 78q0 19 -1.5 36t-3.5 25l-1 7h191q6 -23 6 -66q0 -45 -8 -94l-107 -672q-4 -27 -4 -75q0 -19 1.5 -36t3.5 -24l1 -8h-194q-6 23 -6 66zM270 1112l224 301h190l-268 -301h-146z" />
<glyph unicode="&#xee;" horiz-adv-x="466" d="M106 1112l230 301h158l133 -301h-142l-86 203l-149 -203h-144zM111 66q0 45 8 92l108 671q6 47 6 78q0 19 -1.5 36t-3.5 25l-1 7h191q6 -23 6 -66q0 -45 -8 -94l-107 -672q-4 -27 -4 -75q0 -19 1.5 -36t3.5 -24l1 -8h-194q-6 23 -6 66z" />
<glyph unicode="&#xef;" horiz-adv-x="466" d="M111 66q0 45 8 92l108 671q6 47 6 78q0 19 -1.5 36t-3.5 25l-1 7h191q6 -23 6 -66q0 -45 -8 -94l-107 -672q-4 -27 -4 -75q0 -19 1.5 -36t3.5 -24l1 -8h-194q-6 23 -6 66zM135 1241q0 53 35.5 93t87.5 40q40 0 65 -25t25 -65q0 -53 -36 -93t-89 -40q-39 0 -63.5 25.5 t-24.5 64.5zM434 1241q0 54 36 93.5t89 39.5q40 0 64 -25t24 -65q0 -52 -36 -92.5t-87 -40.5q-39 0 -64.5 25.5t-25.5 64.5z" />
<glyph unicode="&#xf0;" horiz-adv-x="1134" d="M92 387q0 147 72.5 279.5t201 215.5t279.5 83q156 0 240 -91q-61 179 -211 336l-250 -147l-41 96l217 129q-77 71 -170 139l141 91q114 -81 183 -148l262 154l43 -99l-230 -133q129 -137 202 -306t73 -349q0 -133 -39 -251t-112 -210t-187 -145.5t-254 -53.5 q-185 0 -302.5 113t-117.5 297zM291 416q0 -118 68 -193.5t184 -75.5q102 0 185.5 58.5t128 149.5t44.5 192q0 117 -68.5 191.5t-185.5 74.5q-102 0 -185 -57.5t-127 -148t-44 -191.5z" />
<glyph unicode="&#xf1;" horiz-adv-x="1073" d="M88 0l131 829q6 47 6 78q0 19 -1.5 36t-3.5 25l-1 7h191q6 -23 6 -66t-8 -90h2q55 79 138 125.5t177 46.5q281 0 281 -282q0 -61 -13 -134l-67 -432q-4 -27 -4 -75q0 -19 1.5 -36t2.5 -24l2 -8h-195q-6 23 -6 66q0 45 8 92l62 385q10 65 10 114q0 85 -37.5 126.5 t-122.5 41.5q-67 0 -119.5 -29t-86 -79.5t-54 -106.5t-31.5 -121l-77 -489h-191zM367 1188q18 76 78.5 134t136.5 58q40 0 76.5 -15t58.5 -33t50 -33t54 -15q34 0 60.5 26t38.5 62l92 -22q-18 -76 -78.5 -134.5t-134.5 -58.5q-41 0 -77.5 15t-58.5 33t-50 33t-54 15 q-34 0 -60 -26t-38 -62z" />
<glyph unicode="&#xf2;" horiz-adv-x="1134" d="M92 391q0 161 74.5 298t210 219.5t301.5 82.5q188 0 306 -114.5t118 -301.5q0 -120 -44 -230t-120.5 -191t-186 -129t-233.5 -48q-188 0 -307 113.5t-119 300.5zM291 420q0 -120 67.5 -196.5t186.5 -76.5q104 0 188 60.5t128 154t44 197.5q0 120 -67.5 195t-186.5 75 q-104 0 -188 -60.5t-128 -153t-44 -195.5zM489 1413h187l131 -301h-148z" />
<glyph unicode="&#xf3;" horiz-adv-x="1134" d="M92 391q0 161 74.5 298t210 219.5t301.5 82.5q188 0 306 -114.5t118 -301.5q0 -120 -44 -230t-120.5 -191t-186 -129t-233.5 -48q-188 0 -307 113.5t-119 300.5zM291 420q0 -120 67.5 -196.5t186.5 -76.5q104 0 188 60.5t128 154t44 197.5q0 120 -67.5 195t-186.5 75 q-104 0 -188 -60.5t-128 -153t-44 -195.5zM588 1112l225 301h188l-266 -301h-147z" />
<glyph unicode="&#xf4;" horiz-adv-x="1134" d="M92 391q0 161 74.5 298t210 219.5t301.5 82.5q188 0 306 -114.5t118 -301.5q0 -120 -44 -230t-120.5 -191t-186 -129t-233.5 -48q-188 0 -307 113.5t-119 300.5zM291 420q0 -120 67.5 -196.5t186.5 -76.5q104 0 188 60.5t128 154t44 197.5q0 120 -67.5 195t-186.5 75 q-104 0 -188 -60.5t-128 -153t-44 -195.5zM436 1112l230 301h157l133 -301h-141l-86 203l-149 -203h-144z" />
<glyph unicode="&#xf5;" horiz-adv-x="1134" d="M92 391q0 161 74.5 298t210 219.5t301.5 82.5q188 0 306 -114.5t118 -301.5q0 -120 -44 -230t-120.5 -191t-186 -129t-233.5 -48q-188 0 -307 113.5t-119 300.5zM291 420q0 -120 67.5 -196.5t186.5 -76.5q104 0 188 60.5t128 154t44 197.5q0 120 -67.5 195t-186.5 75 q-104 0 -188 -60.5t-128 -153t-44 -195.5zM399 1188q18 76 78 134t135 58q41 0 77.5 -15t59 -33t51 -33t54.5 -15q33 0 58.5 26t37.5 62l94 -22q-18 -76 -78.5 -134.5t-134.5 -58.5q-41 0 -77.5 15t-59 33t-50.5 33t-54 15q-34 0 -60 -26t-38 -62z" />
<glyph unicode="&#xf6;" horiz-adv-x="1134" d="M92 391q0 161 74.5 298t210 219.5t301.5 82.5q188 0 306 -114.5t118 -301.5q0 -120 -44 -230t-120.5 -191t-186 -129t-233.5 -48q-188 0 -307 113.5t-119 300.5zM291 420q0 -120 67.5 -196.5t186.5 -76.5q104 0 188 60.5t128 154t44 197.5q0 120 -67.5 195t-186.5 75 q-104 0 -188 -60.5t-128 -153t-44 -195.5zM463 1241q0 53 36.5 93t88.5 40q40 0 65 -25t25 -65q0 -53 -36 -93t-89 -40q-39 0 -64.5 25.5t-25.5 64.5zM764 1241q0 54 36 93.5t89 39.5q40 0 64 -25t24 -65q0 -53 -36 -93t-89 -40q-38 0 -63 26t-25 64z" />
<glyph unicode="&#xf7;" horiz-adv-x="1366" d="M106 631v151h1072v-151h-1072zM516 369q0 54 37 90.5t90 36.5q52 0 88.5 -37t36.5 -90t-36 -89t-89 -36t-90 36.5t-37 88.5zM516 1044q0 51 37.5 88t89.5 37t88.5 -37t36.5 -88q0 -53 -36.5 -89.5t-88.5 -36.5q-53 0 -90 37t-37 89z" />
<glyph unicode="&#xf8;" horiz-adv-x="1134" d="M16 47l136 119q-60 100 -60 225q0 161 74.5 298t210 219.5t301.5 82.5q177 0 291 -100l135 121l74 -88l-136 -119q60 -102 60 -230q0 -120 -44 -230t-120.5 -191t-186 -129t-233.5 -48q-178 0 -295 103l-135 -121zM291 420q0 -60 18 -113l518 459q-66 63 -176 63 q-104 0 -188 -60.5t-128 -153t-44 -195.5zM371 209q68 -62 174 -62q104 0 188 60.5t128 154t44 197.5q0 62 -16 109z" />
<glyph unicode="&#xf9;" horiz-adv-x="1064" d="M129 254q0 70 12 137l70 436q6 47 6 78q0 19 -1.5 36t-3.5 25l-1 7h190q7 -23 7 -66q0 -39 -9 -94l-65 -414q-8 -62 -8 -92q0 -162 159 -162q62 0 112 26.5t83 72t53.5 97.5t30.5 112l84 520h190l-131 -830q-4 -27 -4 -75q0 -19 1.5 -36t3.5 -24l1 -8h-188q-6 23 -6 66 q0 40 4 67q-55 -73 -138.5 -114.5t-174.5 -41.5q-277 0 -277 277zM438 1413h189l131 -301h-148z" />
<glyph unicode="&#xfa;" horiz-adv-x="1064" d="M129 254q0 70 12 137l70 436q6 47 6 78q0 19 -1.5 36t-3.5 25l-1 7h190q7 -23 7 -66q0 -39 -9 -94l-65 -414q-8 -62 -8 -92q0 -162 159 -162q62 0 112 26.5t83 72t53.5 97.5t30.5 112l84 520h190l-131 -830q-4 -27 -4 -75q0 -19 1.5 -36t3.5 -24l1 -8h-188q-6 23 -6 66 q0 40 4 67q-55 -73 -138.5 -114.5t-174.5 -41.5q-277 0 -277 277zM557 1112l225 301h189l-266 -301h-148z" />
<glyph unicode="&#xfb;" horiz-adv-x="1064" d="M129 254q0 70 12 137l70 436q6 47 6 78q0 19 -1.5 36t-3.5 25l-1 7h190q7 -23 7 -66q0 -39 -9 -94l-65 -414q-8 -62 -8 -92q0 -162 159 -162q62 0 112 26.5t83 72t53.5 97.5t30.5 112l84 520h190l-131 -830q-4 -27 -4 -75q0 -19 1.5 -36t3.5 -24l1 -8h-188q-6 23 -6 66 q0 40 4 67q-55 -73 -138.5 -114.5t-174.5 -41.5q-277 0 -277 277zM397 1112l230 301h157l136 -301h-144l-86 203l-149 -203h-144z" />
<glyph unicode="&#xfc;" horiz-adv-x="1064" d="M129 254q0 70 12 137l70 436q6 47 6 78q0 19 -1.5 36t-3.5 25l-1 7h190q7 -23 7 -66q0 -39 -9 -94l-65 -414q-8 -62 -8 -92q0 -162 159 -162q62 0 112 26.5t83 72t53.5 97.5t30.5 112l84 520h190l-131 -830q-4 -27 -4 -75q0 -19 1.5 -36t3.5 -24l1 -8h-188q-6 23 -6 66 q0 40 4 67q-55 -73 -138.5 -114.5t-174.5 -41.5q-277 0 -277 277zM426 1241q0 54 36 93.5t89 39.5q40 0 64 -25t24 -65q0 -53 -36 -93t-89 -40q-39 0 -63.5 25.5t-24.5 64.5zM725 1241q0 54 36 93.5t89 39.5q40 0 65 -25t25 -65q0 -52 -37 -92.5t-88 -40.5q-39 0 -64.5 25.5 t-25.5 64.5z" />
<glyph unicode="&#xfd;" horiz-adv-x="950" d="M-27 -358l64 161q50 -24 94 -24q33 0 61.5 16t50.5 47.5t36 57t33 67.5t26 56l-225 952h200l158 -752l393 752h199l-633 -1145q-26 -48 -51.5 -83t-60 -70t-79 -53.5t-94.5 -18.5q-102 0 -172 37zM500 1112l225 301h188l-266 -301h-147z" />
<glyph unicode="&#xfe;" horiz-adv-x="1185" d="M51 -317q0 45 8 92l236 1491q6 46 6 77q0 19 -1.5 36t-3.5 25l-1 7h192q7 -22 7 -65q0 -40 -9 -95l-67 -428h2q67 80 158 124t194 44q178 0 279.5 -110.5t101.5 -290.5q0 -116 -38.5 -226t-107 -196.5t-172.5 -138.5t-227 -52q-101 0 -178 43.5t-117 131.5h-2l-61 -390 q-4 -27 -4 -75q0 -19 1.5 -36t2.5 -25l2 -7h-195q-6 23 -6 64zM352 416q0 -121 65 -195t183 -74q106 0 188.5 62t124 155.5t41.5 198.5q0 119 -64.5 192.5t-182.5 73.5q-80 0 -148 -35.5t-112.5 -94t-69.5 -132.5t-25 -151z" />
<glyph unicode="&#xff;" horiz-adv-x="950" d="M-27 -358l64 161q50 -24 94 -24q33 0 61.5 16t50.5 47.5t36 57t33 67.5t26 56l-225 952h200l158 -752l393 752h199l-633 -1145q-26 -48 -51.5 -83t-60 -70t-79 -53.5t-94.5 -18.5q-102 0 -172 37zM379 1249q0 53 36 93t89 40q39 0 63.5 -25.5t24.5 -64.5q0 -53 -35.5 -93 t-87.5 -40q-40 0 -65 25t-25 65zM678 1249q0 52 37 92.5t88 40.5q39 0 64.5 -25.5t25.5 -64.5q0 -54 -36 -93.5t-89 -39.5q-40 0 -65 25t-25 65z" />
<glyph unicode="&#x152;" horiz-adv-x="1970" d="M129 565q0 137 38.5 266.5t112.5 238t173.5 190.5t228 128t270.5 46q203 0 338 -97l13 76h733l-27 -170h-547l-67 -416h514l-27 -170h-514l-76 -487h563l-28 -170h-748l13 74q-162 -99 -371 -99q-264 0 -428 163t-164 427zM332 598q0 -192 114 -315t304 -123 q207 0 366 125l133 850q-117 125 -325 125q-103 0 -196.5 -36.5t-164.5 -100.5t-123.5 -147.5t-80 -180.5t-27.5 -197z" />
<glyph unicode="&#x153;" horiz-adv-x="1871" d="M92 391q0 161 74.5 298t210 219.5t301.5 82.5q125 0 222.5 -53.5t150.5 -149.5q86 95 205 150t255 55q149 0 240.5 -73t91.5 -189q0 -17 -5.5 -39.5t-21 -53.5t-39 -60.5t-65 -59.5t-94 -52t-130 -36t-169.5 -14q-103 0 -232 18q-2 -17 -2 -37q0 -122 68.5 -192 t189.5 -70q154 0 332 113l62 -117q-88 -76 -203.5 -115t-237.5 -39t-213.5 48.5t-138.5 138.5q-80 -88 -190 -137.5t-236 -49.5q-188 0 -307 113.5t-119 300.5zM291 420q0 -120 67.5 -196.5t186.5 -76.5q104 0 188 60.5t128 154t44 197.5q0 120 -67.5 195t-186.5 75 q-104 0 -188 -60.5t-128 -153t-44 -195.5zM1112 573q74 -12 162 -12q74 0 140.5 9.5t123 29t90 53.5t33.5 78q0 50 -47 85.5t-127 35.5q-134 0 -235.5 -78t-139.5 -201z" />
<glyph unicode="&#x178;" horiz-adv-x="1142" d="M176 1413h221l248 -645l455 645h219l-604 -821l-92 -592h-197l94 592zM532 1653q0 53 36 93t89 40q39 0 63.5 -25.5t24.5 -64.5q0 -54 -35.5 -93.5t-88.5 -39.5q-40 0 -64.5 25t-24.5 65zM834 1653q0 53 35.5 93t88.5 40q39 0 64 -25.5t25 -64.5q0 -54 -36 -93.5 t-89 -39.5q-40 0 -64 25t-24 65z" />
<glyph unicode="&#x2c6;" horiz-adv-x="665" d="M205 1116l229 297h156l135 -297h-141l-86 201l-152 -201h-141z" />
<glyph unicode="&#x2dc;" horiz-adv-x="665" d="M168 1190q18 77 78 133.5t135 56.5q40 0 76.5 -14.5t59 -32.5t50.5 -32.5t54 -14.5q34 0 60 25t38 61l92 -22q-16 -75 -76 -132t-137 -57q-40 0 -76.5 14.5t-59 32.5t-50.5 32.5t-54 14.5q-34 0 -60 -25t-38 -61z" />
<glyph unicode="&#x2000;" horiz-adv-x="939" />
<glyph unicode="&#x2001;" horiz-adv-x="1878" />
<glyph unicode="&#x2002;" horiz-adv-x="939" />
<glyph unicode="&#x2003;" horiz-adv-x="1878" />
<glyph unicode="&#x2004;" horiz-adv-x="626" />
<glyph unicode="&#x2005;" horiz-adv-x="469" />
<glyph unicode="&#x2006;" horiz-adv-x="313" />
<glyph unicode="&#x2007;" horiz-adv-x="313" />
<glyph unicode="&#x2008;" horiz-adv-x="234" />
<glyph unicode="&#x2009;" horiz-adv-x="375" />
<glyph unicode="&#x200a;" horiz-adv-x="104" />
<glyph unicode="&#x2010;" horiz-adv-x="579" d="M82 479l27 164h481l-27 -164h-481z" />
<glyph unicode="&#x2011;" horiz-adv-x="579" d="M82 479l27 164h481l-27 -164h-481z" />
<glyph unicode="&#x2012;" horiz-adv-x="579" d="M82 479l27 164h481l-27 -164h-481z" />
<glyph unicode="&#x2013;" horiz-adv-x="917" d="M33 483l24 154h914l-25 -154h-913z" />
<glyph unicode="&#x2014;" horiz-adv-x="1687" d="M45 483l25 154h1650l-24 -154h-1651z" />
<glyph unicode="&#x2018;" horiz-adv-x="620" d="M262 975l246 438h154l-203 -438h-197z" />
<glyph unicode="&#x2019;" horiz-adv-x="620" d="M248 975l205 438h194l-246 -438h-153z" />
<glyph unicode="&#x201a;" horiz-adv-x="620" d="M55 -238l205 437h195l-244 -437h-156z" />
<glyph unicode="&#x201c;" horiz-adv-x="970" d="M266 975l244 438h149l-202 -438h-191zM612 975l246 438h148l-203 -438h-191z" />
<glyph unicode="&#x201d;" horiz-adv-x="970" d="M252 975l203 438h190l-246 -438h-147zM598 975l203 438h190l-246 -438h-147z" />
<glyph unicode="&#x201e;" horiz-adv-x="970" d="M59 -238l203 437h191l-246 -437h-148zM406 -238l202 437h191l-244 -437h-149z" />
<glyph unicode="&#x2022;" horiz-adv-x="1107" d="M205 748q0 125 91.5 217t217.5 92q124 0 215.5 -92t91.5 -217t-91.5 -217.5t-215.5 -92.5q-126 0 -217.5 92.5t-91.5 217.5z" />
<glyph unicode="&#x2026;" horiz-adv-x="1873" d="M176 86q0 61 43.5 103t104.5 42q47 0 78.5 -27t31.5 -73q0 -62 -43.5 -104.5t-105.5 -42.5q-47 0 -78 28t-31 74zM774 86q0 61 44 103t106 42q47 0 78.5 -27t31.5 -73q0 -62 -43.5 -104.5t-105.5 -42.5q-47 0 -79 28t-32 74zM1374 86q0 61 44 103t106 42q47 0 77.5 -27 t30.5 -73q0 -62 -43.5 -104.5t-105.5 -42.5q-47 0 -78 28t-31 74z" />
<glyph unicode="&#x202f;" horiz-adv-x="375" />
<glyph unicode="&#x2039;" horiz-adv-x="630" d="M141 487l359 406l94 -82l-283 -324l183 -327l-123 -80z" />
<glyph unicode="&#x203a;" horiz-adv-x="630" d="M102 162l285 325l-184 326l123 80l229 -406l-358 -407z" />
<glyph unicode="&#x205f;" horiz-adv-x="469" />
<glyph unicode="&#x20ac;" d="M106 510l23 137h117q4 49 20 137h-116l22 136h133q32 102 84.5 191.5t125 163t170 116.5t206.5 43q199 0 328 -140l-91 -157q-87 135 -258 135q-71 0 -132.5 -30.5t-105 -83t-74.5 -111t-52 -127.5h491l-22 -136h-508q-18 -108 -21 -139h506l-20 -135h-492v-27 q-1 -65 13 -122.5t43 -106t80.5 -76.5t119.5 -28q91 0 165.5 38.5t148.5 110.5l59 -133q-74 -93 -181.5 -142t-230.5 -49q-90 0 -162 30t-119 80t-78.5 119.5t-45 145.5t-12.5 160h-134z" />
<glyph unicode="&#x2122;" horiz-adv-x="1740" d="M59 1298v115h592v-115h-229v-700h-133v700h-230zM696 598l64 815h180l199 -612h4l196 612h183l63 -815h-133l-45 641h-4l-211 -641h-105l-208 641h-7l-43 -641h-133z" />
<glyph unicode="&#xe000;" horiz-adv-x="972" d="M0 0v973h973v-973h-973z" />
</font>
</defs>
</svg>
